Эпик / Epic (Крис Уэдж / Chris Wedge) [2013, мультфильм, фэнтези, приключения, комедия, семейны, HDRip] Dub

Ответить на тему
 
Автор Сообщение

user ®

Стаж: 13 лет

Сообщений: 15041

Пост Пост: #1 от 06-Окт-2013 16:50

[Цитировать]

Эпик / Epic- Страна: США
Жанр: мультфильм, фэнтези, приключения, комедия, семейны
Продолжительность: 01:42:29
Год выпуска: 2013
Перевод: Профессиональный (дублированный)
Субтитры: нет-Режиссёр: Крис Уэдж / Chris Wedge
В ролях: Аманда Сайфред (Mary Katherine (M.K.), озвучка), Джош Хатчерсон (Nod, озвучка), Колин Фаррелл (Ronin, озвучка), Джейсон Судейкис (Bomba, озвучка), Азиз Ансари (Mub, озвучка), Крис О’Дауд (Grub, озвучка), Кристоф Вальц (Mandrake, озвучка), Стивен Тайлер (Nim Galuu, озвучка), Бейонсе Ноулз (Queen Tara, озвучка), Эллисон Биллс (Dandelion Jinn, озвучка), Блейк Андерсон (Dagda, озвучка), Джим Конрой (Race Announcer, дополнительные голоса, озвучка).
Роли дублировали: Юлия Савичева (Mary Katherine (M.K.)), Пётр Иващенко (Nod), Илья Исаев (Ronin), Никита Прозоровский (Mandrake), Диомид Виноградов (Dagda).
Описание: После долгой разлуки юная Мэри Кэтрин возвращается в дом, где отшельником живет ее отец, безумный профессор Бомба. Однако тот совсем не обращает внимания на дочь и одержим лишь одной идеей - изучить скрытый от посторонних глаз таинственный лесной мир. Девушка отказывается верить, что под ногами человечества идет вечная борьба между армиями, воюющими на сторонах добра и зла. Чудесным образом Мэри Кэтрин уменьшается в размерах и знакомится с маленькими воинами. Теперь от нее зависит спасение не только волшебного лесного, но и реального человеческого мира...-Качество: HDRip (источник BDRip 1080p)
Формат: AVI | Sample
Видео: 688x288 (2:35:1), 23.976 fps, XviD MPEG-4 ~ 882 kbps avg, 0.19 bit/pixel
Аудио: 48 kHz, MPEG Layer 3, 2 ch, ~128.00 kbps avg

Скриншоты

Медиаинфо

Format : AVIFormat/Info : Audio Video InterleaveFile size : 745 MiBDuration : 1h 42mnOverall bit rate : 1 019 KbpsMovie name : Epik.2013.BDRipWriting application : VirtualDubMod 1.5.10.2 (build 2540/release)
VideoID : 0Format : MPEG-4 VisualFormat profile : Advanced Simple@L5Format settings, BVOP : YesFormat settings, QPel : NoFormat settings, GMC : No warppointsFormat settings, Matrix : Default (MPEG)Codec ID : XVIDCodec ID/Hint : XviDDuration : 1h 42mnBit rate : 882 KbpsWidth : 688 pixelsHeight : 288 pixelsDisplay aspect ratio : 2.35:1Frame rate : 23.976 fpsColor space : YUVChroma subsampling : 4:2:0Bit depth : 8 bitsScan type : ProgressiveBits/(Pixel*Frame) : 0.186Stream size : 645 MiB (87%)Writing library : XviD 1.2.0.dev47 (UTC 2006-11-01)
AudioID : 1Format : MPEG AudioFormat version : Version 1Format profile : Layer 3Codec ID : 55Codec ID/Hint : MP3Duration : 1h 42mnBit rate mode : ConstantBit rate : 128 KbpsChannel(s) : 2 channelsSampling rate : 48.0 KHzStream size : 93.6 MiB (13%)Alignment : Aligned on interleavesInterleave, duration : 42 ms (1.00 video frame)Interleave, preload duration : 504 msWriting library : LAMELAME_MAJOR_VERSI

Знаете ли Вы, что...

Первый фильм Blue Sky Studios, в котором главным героем является девушка. Для студии Twentieth Century Fox это первый после «Анастасии» (1997) кинотеатральный анимационный фильм с девушкой в качестве главной героини.
Второй фильм Blue Sky Studios после фильма «Ледниковый период» (2002), где композитором не стал Джон Пауэлл.
Когда Мэри Кэтрин и ее отец воссоединяются в лесу, его глаза синие, в то время как в любых других сценах они зеленые.

Скачать

Скачать торрент! Эпик / Epic (Крис Уэдж / Chris Wedge) [2013, мультфильм, фэнтези, приключения, комедия, семейны, HDRip] Dub

Как скачивать? · Что такое торрент? · Рейтинг и ограничения

Сайт не распространяет и не хранит электронные версии произведений, а лишь предоставляет доступ к создаваемому пользователями каталогу ссылок на торрент-файлы, которые содержат только списки хеш-сумм

[Профиль] [ЛС]
Показать сообщения:    
Ответить на тему

Текущее время: Сегодня 00:25

Часовой пояс: GMT + 4



Вы не можете начинать темы
Вы не можете отвечать на сообщения
Вы не можете редактировать свои сообщения
Вы не можете удалять свои сообщения
Вы не можете голосовать в опросах
Вы не можете прикреплять файлы к сообщениям
Вы не можете скачивать файлы