Монстр Ёнггари / Taekoesu Yonggary (Ки-дук Ким / Ki-duk Kim) [1967, Южная Корея, Япония, фантастика, ужасы, DVDRip] VO (Трамвай-фильм)

Ответить на тему
 
Автор Сообщение

user ®

Стаж: 11 лет

Сообщений: 15151

Пост Пост: #1 от 06-Окт-2013 16:50

[Цитировать]

Монстр Ёнггари / Taekoesu Yonggary
Страна: Южная Корея, Япония
Жанр: фантастика, ужасы
Год выпуска: 1967
Продолжительность: 01:19:53
Перевод: Одноголосый закадровый Трамвай-фильм
Cубтитры: нет
Оригинальная аудиодорожка: нет
Режиссер: Ки-дук Ким / Ki-duk Kim
В ролях: Ёнг-ил Ох
Джонг-им Нам
Сун-джа Ли
Мун Канг
Кванг Хо Ли
Описание: Китайские ядерные испытания пробуждают от сна огромного монстра, который начинает терроризировать Корею. Власти не могут усмирить чудовище, но одному восьмилетнему парнишке приходит в голову интересный план…
Качество видео: DVDRip
Формат видео: AVI
Видео: Video: Xvid 720x320 23.976fps 1 420 Kbps
Аудио: Dolby AC3 48000Hz stereo 192kbps

MediaInfo

General
Complete name : C:\Video\Yongary [1967].avi
Format : AVI
Format/Info : Audio Video Interleave
File size : 927 MiB
Duration : 1h 19mn
Overall bit rate : 1 622 Kbps
Writing application : VirtualDubMod 1.5.10.2 (build 2540/release)
Writing library : VirtualDubMod build 2540/release
Video
ID : 0
Format : MPEG-4 Visual
Format profile : Advanced Simple@L5
Format settings, BVOP : Yes
Format settings, QPel : No
Format settings, GMC : No warppoints
Format settings, Matrix : Custom
Codec ID : XVID
Codec ID/Hint : XviD
Duration : 1h 19mn
Bit rate : 1 420 Kbps
Width : 720 pixels
Height : 320 pixels
Display aspect ratio : 2.25:1
Frame rate : 23.976 fps
Color space : YUV
Chroma subsampling : 4:2:0
Bit depth : 8 bits
Scan type : Progressive
Compression mode : Lossy
Bits/(Pixel*Frame) : 0.257
Stream size : 811 MiB (88%)
Writing library : XviD 1.2.0.dev47 (UTC 2006-11-01)
Audio
ID : 1
Format : AC-3
Format/Info : Audio Coding 3
Mode extension : CM (complete main)
Format settings, Endianness : Big
Codec ID : 2000
Duration : 1h 19mn
Bit rate mode : Constant
Bit rate : 192 Kbps
Channel count : 2 channels
Channel positions : Front: L R
Sampling rate : 48.0 KHz
Bit depth : 16 bits
Compression mode : Lossy
Stream size : 110 MiB (12%)
Alignment : Split accross interleaves
Interleave, duration : 42 ms (1.00 video frame)
Interleave, preload duration : 500 ms
Language : English

Скриншоты

Скачать

Скачать торрент! Монстр Ёнггари / Taekoesu Yonggary (Ки-дук Ким / Ki-duk Kim) [1967, Южная Корея, Япония, фантастика, ужасы, DVDRip] VO (Трамвай-фильм)

Как скачивать? · Что такое торрент? · Рейтинг и ограничения

Сайт не распространяет и не хранит электронные версии произведений, а лишь предоставляет доступ к создаваемому пользователями каталогу ссылок на торрент-файлы, которые содержат только списки хеш-сумм

[Профиль] [ЛС]
Показать сообщения:    
Ответить на тему

Текущее время: Сегодня 09:41

Часовой пояс: GMT + 4



Вы не можете начинать темы
Вы не можете отвечать на сообщения
Вы не можете редактировать свои сообщения
Вы не можете удалять свои сообщения
Вы не можете голосовать в опросах
Вы не можете прикреплять файлы к сообщениям
Вы не можете скачивать файлы