Чудо пляж / Miracle Beach (Скот Снайдер / Skott Snider) [1992, США, мелодрама, комедия, HDTV 1080i] DVO (НТВ+) + VO + Original Eng

Ответить на тему
 
Автор Сообщение

user ®

Стаж: 7 лет 7 месяцев

Сообщений: 20008

Пост Пост: #1 от 06-Окт-2013 16:50

[Цитировать]

Чудо пляж / Miracle Beach
Страна: США
Студия: Motion Picture Corporation of America (MPCA)
Жанр: мелодрама, комедия
Год выпуска: 1992
Продолжительность: 01:23:57
Перевод 1: Профессиональный (двухголосый закадровый) НТВ+
Перевод 2: Одноголосый закадровый
Cубтитры: нет
Оригинальная аудиодорожка: английский
Режиссер: Скот Снайдер / Skott Snider
В ролях: Дин Кэмерон, Эми Доленц, Фелисити Ватерман, Брайан Перри, Алексис Аркетт, Пэт Морита, Аллен Гарфилд, Мартин Мулл, Винсент Скьявелли, Брэд Грюнберг и др.
Описание: Скотти (Дин Кэмерон), выгнанный с работы, лишившийся жилья, заставший свою подружку в постели с другим, отвергнутый прекрасной девушкой, в которую влюбился с первого взгляда, сидит на пляже рядом с бомжом (Морита). Тот, разжалобившись, дарит ему старую бутылку и одеяло. Тем временем повелитель джинов выписывает командировку на Землю симпатичной подчиненной (Доленц). Пленницей подаренной Скотти бутылки она и оказалась. Засыпая, Скотти пожелал очутиться в теплой постели с двумя красавицами. И утром проснулся в роскошной кровати с двумя очаровательными девицами прямо на... пляже. Парнем он оказался сообразительным, сразу ухватил бутылку и побежал загадывать желания... Единственное, чего не могла пленница, — так это влюблять в Скотти девушек. Ну а что можно нажелать в двадцать лет, зритель может легко догадаться — есть в этой легкой и глупенькой комедии — и любовь, и ненавязчивая мораль, и хэппи-энд. Имеется также огромное количество полуобнаженных и обнаженных красавиц...

Доп. информация:
За одноголосый перевод спасибо sergtor09
За оригинальную дорогу спасибо souleru
Тип релиза: HDTV 1080i
Контейнер: MKV
Видео: AVC 1920x1080 (16:9) 25.0fps Bit rate 6902Kbps
Аудио 1: MP2 48.0KHz 2ch 192 Kbps rus
Аудио 2: AC3 48.0KHz 2ch 192 Kbps rus
Аудио 3: AC3 48.0KHz 2ch 192 Kbps eng

MediaInfo

General
Complete name : E:\torrent\Miracle Beach_HDTV 1080i.mkv
Format : Matroska
File size : 4.47 GiB
Duration : 1h 23mn
Overall bit rate : 7 630 Kbps
Encoded date : UTC 2013-10-06 00:50:58
Writing application : mkvmerge v5.7.0 ('The Whirlwind') built on Jul 8 2012 20:08:51
Writing library : libebml v1.2.3 + libmatroska v1.3.0
Video
ID : 1
Format : AVC
Format/Info : Advanced Video Codec
Format profile : High@L4.0
Format settings, CABAC : Yes
Format settings, ReFrames : 3 frames
Format settings, GOP : M=1, N=2
Muxing mode : Container profile=Unknown@4.0
Codec ID : V_MPEG4/ISO/AVC
Duration : 1h 23mn
Bit rate : 6 902 Kbps
Width : 1 920 pixels
Height : 1 080 pixels
Display aspect ratio : 16:9
Frame rate : 50.000 fps
Original frame rate : 25.000 fps
Standard : Component
Color space : YUV
Chroma subsampling : 4:2:0
Bit depth : 8 bits
Scan type : Interlaced
Scan order : Top Field First
Bits/(Pixel*Frame) : 0.067
Stream size : 4.05 GiB (90%)
Title : Miracle Beach_HDTV 1080i
Color primaries : BT.709-5, BT.1361, IEC 61966-2-4, SMPTE RP177
Transfer characteristics : BT.709-5, BT.1361
Matrix coefficients : BT.709-5, BT.1361, IEC 61966-2-4 709, SMPTE RP177
Audio #1
ID : 2
Format : MPEG Audio
Format version : Version 1
Format profile : Layer 2
Codec ID : A_MPEG/L2
Codec ID/Hint : MP2
Duration : 1h 23mn
Bit rate mode : Constant
Bit rate : 192 Kbps
Channel(s) : 2 channels
Sampling rate : 48.0 KHz
Stream size : 115 MiB (3%)
Title : Miracle Beach_MP2_DVO_NTV+
Language : Russian
Audio #2
ID : 3
Format : AC-3
Format/Info : Audio Coding 3
Mode extension : CM (complete main)
Codec ID : A_AC3
Duration : 1h 23mn
Bit rate mode : Constant
Bit rate : 192 Kbps
Channel(s) : 2 channels
Channel positions : Front: L R
Sampling rate : 48.0 KHz
Bit depth : 16 bits
Stream size : 115 MiB (3%)
Title : Miracle Beach_AC3_VO
Language : Russian
Audio #3
ID : 4
Format : AC-3
Format/Info : Audio Coding 3
Mode extension : CM (complete main)
Codec ID : A_AC3
Duration : 1h 23mn
Bit rate mode : Constant
Bit rate : 192 Kbps
Channel(s) : 2 channels
Channel positions : Front: L R
Sampling rate : 48.0 KHz
Bit depth : 16 bits
Stream size : 115 MiB (3%)
Title : Miracle Beach_AC3_original eng

Скриншот с названием фильма

Скриншоты


Скачать

Скачать торрент!

Как скачивать? · Что такое торрент? · Рейтинг и ограничения

Сайт не распространяет и не хранит электронные версии произведений, а лишь предоставляет доступ к создаваемому пользователями каталогу ссылок на торрент-файлы, которые содержат только списки хеш-сумм

[Профиль] [ЛС]
Показать сообщения:    
Ответить на тему

Текущее время: Сегодня 20:02

Часовой пояс: GMT + 4



Вы не можете начинать темы
Вы не можете отвечать на сообщения
Вы не можете редактировать свои сообщения
Вы не можете удалять свои сообщения
Вы не можете голосовать в опросах
Вы не можете прикреплять файлы к сообщениям
Вы не можете скачивать файлы