Жмурки (Алексей Балабанов) [2005, комедия, BDRip-AVC]

Ответить на тему
 
Автор Сообщение

user ®

Стаж: 7 лет 7 месяцев

Сообщений: 20008

Пост Пост: #1 от 06-Окт-2013 13:40

[Цитировать]

Жмурки
Страна: Россия
Жанр: комедия
Год выпуска: 2005
Продолжительность: 01:49:43
Субтитры: нет
Режиссёр: Алекcей Балабанoв
В ролях: Алексей Панин, Дмитрий Дюжев, Никита Михалков, Сергей Маковецкий, Виктор Сухоруков, Дмитрий Певцов, Кирилл Пирогов, Алексей Серебряков, Андрей Мерзликин, Юрий Степанов, Григорий Сиятвинда, Анатолий Журавлев, Гарик Сукачев, Андрей Панин, Александр Баширов, Андрей Краско, Рената Литвинова, Татьяна Догилева, Сергей Глазунов, Жанна Болотова
Описание: Замечательная черная комедия, снятая выдающимся русским режиссером Алекcеем Балабанoвым. 90-е годы, типичный эпизод из жизни российских бандитов в провинциальном городе. Почти все герои фильма или отморозки, или люди, с мягко говоря, неправовым сознанием.
Кино очень жесткое, не для семейного просмотра...
Семпл: http://multi-up.com/910273
Качество видео: BDRip-AVC
Формат видео: MKV
Видео: 900x508 (1.77:1), AVC (H.264), 23,976 fps, 1458 kbps avg, 0.133 bit/pixel
Аудио: 48 KHz, AC3, 6 ch, 448 Kbps

MediaInfo

Общее
Уникальный идентификатор : 217396456904390488314761822042969780820 (0xA38D08DC91279B5094715D08D4EEB254)
Полное имя : D:\Кино\Жмурки.mkv
Формат : Matroska
Версия формата : Version 2
Размер файла : 1,47 Гбайт
Продолжительность : 1 ч. 51 м.
Общий поток : 1886 Кбит/сек
Дата кодирования : UTC 2013-10-06 06:03:54
Программа кодирования : mkvmerge v4.0.0 ('The Stars were mine') сборка от Jun 6 2010 16:18:42
Библиотека кодирования : libebml v1.0.0 + libmatroska v1.0.0
Видео
Идентификатор : 1
Формат : AVC
Формат/Информация : Advanced Video Codec
Профиль формата : High@L4.1
Параметр CABAC формата : Да
Параметр ReFrames формата : 8 кадров
Идентификатор кодека : V_MPEG4/ISO/AVC
Продолжительность : 1 ч. 51 м.
Битрейт : 1458 Кбит/сек
Ширина : 900 пикселей
Высота : 508 пикселей
Соотношение сторон : 16:9
Режим частоты кадров : Постоянный
Частота кадров : 23,976 кадра/сек
Цветовое пространство : YUV
Субдискретизация насыщенности : 4:2:0
Битовая глубина : 8 бит
Тип развёртки : Прогрессивная
Бит/(Пиксели*Кадры) : 0.133
Размер потока : 1,09 Гбайт (74%)
Библиотека кодирования : x264 core 133 r2334 a3ac64b
Настройки программы : cabac=1 / ref=8 / deblock=1:-2:-1 / analyse=0x3:0x133 / me=umh / subme=9 / psy=1 / psy_rd=1.00:0.10 / mixed_ref=1 / me_range=24 / chroma_me=1 / trellis=2 / 8x8dct=1 / cqm=0 / deadzone=21,11 / fast_pskip=0 / chroma_qp_offset=-3 / threads=3 / lookahead_threads=1 / sliced_threads=0 / nr=0 / decimate=1 / interlaced=0 / bluray_compat=0 / constrained_intra=0 / bframes=8 / b_pyramid=2 / b_adapt=2 / b_bias=0 / direct=3 / weightb=1 / open_gop=0 / weightp=2 / keyint=240 / keyint_min=23 / scenecut=40 / intra_refresh=0 / rc_lookahead=60 / rc=2pass / mbtree=1 / bitrate=1458 / ratetol=1.0 / qcomp=0.60 / qpmin=10 / qpmax=51 / qpstep=4 / cplxblur=20.0 / qblur=0.5 / vbv_maxrate=50000 / vbv_bufsize=50000 / nal_hrd=none / ip_ratio=1.40 / aq=1:1.00
Default : Нет
Forced : Нет
Аудио
Идентификатор : 2
Формат : AC-3
Формат/Информация : Audio Coding 3
Расширение режима : CM (complete main)
Параметр Endianness формата : Big
Идентификатор кодека : A_AC3
Продолжительность : 1 ч. 51 м.
Вид битрейта : Постоянный
Битрейт : 448 Кбит/сек
Каналы : 6 каналов
Расположение каналов : Front: L C R, Side: L R, LFE
Частота : 48,0 КГц
Битовая глубина : 16 бит
Метод сжатия : С потерями
Размер потока : 357 Мбайт (24%)
Default : Да
Forced : Нет

Скриншоты

лог

---[Information] [06.10.2013 0:12:36] avs [info]: 900x508p 1:1 @ 24000/1001 fps (cfr)
---[Information] [06.10.2013 0:12:36] x264 [info]: using SAR=1/1
---[Information] [06.10.2013 0:12:36] x264 [info]: using cpu capabilities: MMX2 SSE2Fast SSEMisalign LZCNT
---[Information] [06.10.2013 0:12:36] x264 [info]: profile High, level 4.1
---[Information] [06.10.2013 6:17:58] x264 [info]: frame I:980 Avg QP:17.22 size: 92876
---[Information] [06.10.2013 6:17:58] x264 [info]: frame P:30134 Avg QP:20.14 size: 23255
---[Information] [06.10.2013 6:17:58] x264 [info]: frame B:126720 Avg QP:23.56 size: 3217
---[Information] [06.10.2013 6:17:58] x264 [info]: consecutive B-frames: 1.1% 1.7% 4.0% 10.1% 14.8% 55.8% 6.9% 1.9% 3.6%
---[Information] [06.10.2013 6:17:58] x264 [info]: mb I I16..4: 8.7% 59.0% 32.4%
---[Information] [06.10.2013 6:17:58] x264 [info]: mb P I16..4: 0.5% 3.2% 1.0% P16..4: 44.5% 21.7% 21.1% 1.0% 0.4% skip: 6.5%
---[Information] [06.10.2013 6:17:58] x264 [info]: mb B I16..4: 0.0% 0.2% 0.1% B16..8: 37.9% 6.0% 1.7% direct: 2.3% skip:51.8% L0:43.6% L1:47.2% BI: 9.2%
---[Information] [06.10.2013 6:17:58] x264 [info]: 8x8 transform intra:64.9% inter:55.4%
---[Information] [06.10.2013 6:17:58] x264 [info]: direct mvs spatial:98.2% temporal:1.8%
---[Information] [06.10.2013 6:17:58] x264 [info]: coded y,uvDC,uvAC intra: 86.2% 87.1% 66.3% inter: 14.9% 16.9% 3.9%
---[Information] [06.10.2013 6:17:58] x264 [info]: i16 v,h,dc,p: 44% 21% 12% 23%
---[Information] [06.10.2013 6:17:58] x264 [info]: i8 v,h,dc,ddl,ddr,vr,hd,vl,hu: 13% 13% 6% 9% 13% 13% 12% 11% 11%
---[Information] [06.10.2013 6:17:58] x264 [info]: i4 v,h,dc,ddl,ddr,vr,hd,vl,hu: 13% 17% 4% 8% 12% 12% 11% 10% 11%
---[Information] [06.10.2013 6:17:58] x264 [info]: i8c dc,h,v,p: 38% 24% 23% 14%
---[Information] [06.10.2013 6:17:58] x264 [info]: Weighted P-Frames: Y:1.9% UV:0.6%
---[Information] [06.10.2013 6:17:58] x264 [info]: ref P L0: 40.8% 11.6% 21.9% 6.0% 7.3% 4.1% 5.5% 2.6% 0.2% 0.0%
---[Information] [06.10.2013 6:17:58] x264 [info]: ref B L0: 71.1% 14.3% 6.5% 3.5% 2.4% 1.5% 0.7%
---[Information] [06.10.2013 6:17:58] x264 [info]: ref B L1: 92.6% 7.4%
---[Information] [06.10.2013 6:17:58] x264 [info]: kb/s:1457.63
---[Information] [06.10.2013 6:17:58] encoded 157834 frames, 7.20 fps, 1457.63 kb/s
Скачать

Скачать торрент!

Как скачивать? · Что такое торрент? · Рейтинг и ограничения

Сайт не распространяет и не хранит электронные версии произведений, а лишь предоставляет доступ к создаваемому пользователями каталогу ссылок на торрент-файлы, которые содержат только списки хеш-сумм

[Профиль] [ЛС]
Показать сообщения:    
Ответить на тему

Текущее время: Сегодня 02:21

Часовой пояс: GMT + 4



Вы не можете начинать темы
Вы не можете отвечать на сообщения
Вы не можете редактировать свои сообщения
Вы не можете удалять свои сообщения
Вы не можете голосовать в опросах
Вы не можете прикреплять файлы к сообщениям
Вы не можете скачивать файлы