Русалочка: Начало истории Ариэль / The Little Mermaid: Ariel\'s Beginning (Пегги Холмс / Peggy Holmes) [2008, мультфильм, фэнтези, драма, семейный, BDRip] Dub + Original + subs (Rus, Eng)

Ответить на тему
 
Автор Сообщение

user ®

Стаж: 13 лет

Сообщений: 15041

Пост Пост: #1 от 05-Окт-2013 23:30

[Цитировать]

Русалочка: Начало истории Ариэль / The Little Mermaid: Ariel's Beginning- Год выпуска: 2008
Выпущено: США, Австралия
Жанр: мультфильм, фэнтези, драма, семейный
Продолжительность: 01:17:31
Перевод: Профессиональный (полное дублирование)
+ Оригинальная звуковая дорожка
Субтитры: Русские, английские (внешние srt*) (спасибо sociolog_melvas)-Режиссер: Пегги Холмс / Peggy Holmes
В ролях: Джоди Бенсон, Сэмюэл Э. Райт, Джим Каммингс, Салли Филд, Паркер Горис, Тара Стронг, Дженнифер Хейл, Грэй ДеЛисл, Джефф Беннетт, Кари Уолгрен
О фильме: Представьте далекие времена, задолго до того, как Ариэль познакомилась с Принцем Эриком и вышла на сушу - времена, когда музыка была еще под запретом в подводном королевсте Атлантики. Разрываясь между семейными обязанностями и любовью к музыке, Ариэль должна сделать самый трудный выбор в своей жизни.
Релиз:
Автор: kingsize87
Качество: BDRip (источник: / Blu-Ray EUR / 1080р)
Формат: AVI
Видео: 704x400 (1.76:1), 23,976 fps, XviD build 65 ~1904 kbps avg, 0.28 bit/pixel
Аудио #1: 48 kHz, AC3 Dolby Digital, 3/2 (L,C,R,l,r) + LFE ch, ~384.00 kbps avg rus
Аудио #2: 48 kHz, AC3 Dolby Digital, 3/2 (L,C,R,l,r) + LFE ch, ~384.00 kbps avg eng
Размер: 1489.67 Mb (1/3 DVD-R)- -

Mi


Формат : AVI
Формат/Информация : Audio Video Interleave
Размер файла : 1,45 Гбайт
Продолжительность : 1 ч. 17 м.
Общий поток : 2687 Кбит/сек
Название фильма : Русалочка: Начало истории Ариэль / The Little Mermaid: Ariel's Beginning (2008) BDRip
Режиссёр : kingsize87
Программа кодирования : VirtualDubMod 1.5.10.2 (build 2540/release)
Правообладатель : HQCLUB
Примечание : 05.10.2013
Видео
Идентификатор : 0
Формат : MPEG-4 Visual
Профиль формата : Advanced Simple@L5
Параметр BVOP формата : 1
Параметр QPel формата : Нет
Параметр GMC формата : Без точки перехода
Параметр матрицы формата : Выборочная
Идентификатор кодека : XVID
Идентификатор кодека/Подсказка : XviD
Продолжительность : 1 ч. 17 м.
Битрейт : 1905 Кбит/сек
Ширина : 704 пикселя
Высота : 400 пикселей
Соотношение сторон : 16:9
Частота кадров : 23,976 кадра/сек
Цветовое пространство : YUV
Субдискретизация насыщенности : 4:2:0
Битовая глубина : 8 бит
Тип развёртки : Прогрессивная
Метод сжатия : С потерями
Бит/(Пиксели*Кадры) : 0.282
Размер потока : 1,03 Гбайт (71%)
Библиотека кодирования : XviD 65
Аудио #1
Идентификатор : 1
Формат : AC-3
Формат/Информация : Audio Coding 3
Расширение режима : CM (complete main)
Параметр Endianness формата : Big
Идентификатор кодека : 2000
Продолжительность : 1 ч. 17 м.
Вид битрейта : Постоянный
Битрейт : 384 Кбит/сек
Каналы : 6 каналов
Расположение каналов : Front: L C R, Side: L R, LFE
Частота : 48,0 КГц
Битовая глубина : 16 бит
Метод сжатия : С потерями
Размер потока : 213 Мбайт (14%)
Выравнивание : Разделение по промежуткам
Продолжительность промежутка : 42 мс. (1,00 видеокадр)
Время предзагрузки промежутка : 500 мс.
Аудио #2
Идентификатор : 2
Формат : AC-3
Формат/Информация : Audio Coding 3
Расширение режима : CM (complete main)
Параметр Endianness формата : Big
Идентификатор кодека : 2000
Продолжительность : 1 ч. 17 м.
Вид битрейта : Постоянный
Битрейт : 384 Кбит/сек
Каналы : 6 каналов
Расположение каналов : Front: L C R, Side: L R, LFE
Частота : 48,0 КГц
Битовая глубина : 16 бит
Метод сжатия : С потерями
Размер потока : 213 Мбайт (14%)
Выравнивание : Разделение по промежуткам
Продолжительность промежутка : 42 мс. (1,00 видеокадр)
Время предзагрузки промежутка : 500 мс.
-
Скачать

Скачать торрент! Русалочка: Начало истории Ариэль / The Little Mermaid: Ariel\'s Beginning (Пегги Холмс / Peggy Holmes) [2008, мультфильм, фэнтези, драма, семейный, BDRip] Dub + Original + subs (Rus, Eng)

Как скачивать? · Что такое торрент? · Рейтинг и ограничения

Сайт не распространяет и не хранит электронные версии произведений, а лишь предоставляет доступ к создаваемому пользователями каталогу ссылок на торрент-файлы, которые содержат только списки хеш-сумм

[Профиль] [ЛС]
Показать сообщения:    
Ответить на тему

Текущее время: Сегодня 19:00

Часовой пояс: GMT + 4



Вы не можете начинать темы
Вы не можете отвечать на сообщения
Вы не можете редактировать свои сообщения
Вы не можете удалять свои сообщения
Вы не можете голосовать в опросах
Вы не можете прикреплять файлы к сообщениям
Вы не можете скачивать файлы