Герой 3D / Tai Chi Hero (Стивен Фанг / Stephen Fung) [2012, Китай, боевик, приключения, HDRip] MVO (НТВ+)

Ответить на тему
 
Автор Сообщение

user ®

Стаж: 13 лет

Сообщений: 15071

Пост Пост: #1 от 05-Окт-2013 23:30

[Цитировать]

--Герой 3D
Tai Chi Hero
-- Страна: Китай
Жанр: боевик, приключения
Год выпуска: 2012
Продолжительность: 01:42:36--Перевод: Профессиональный (многоголосый закадровый) НТВ+
Cубтитры: нет
Оригинальная аудиодорожка: нет--Режиссер: Стивен Фанг / Stephen Fung--В ролях: Дэниэл Ву, Юань Сяочао, Шу Ци, Тони Люн Ка Фай, Анджела Бейби, Эдди Пэн, Петер Стормаре, Джейд Сюй, Юэнь Бяо--Описание: Ян и Юньян женятся, Ян постигает все тайны единоборств, но Фан, изгнанный с позором из деревни, возвращается с целой армией европейских наемников, чтобы изгнать жителей и проложить железную дорогу. Всей жителям предстоит объединиться, чтобы победить, а Ян должен проявить свои фантастические способности умноженные на новое знание чтобы прославиться и стать героем!
--Сэмпл
Качество видео: HDRip
Формат видео: AVI
Видео: Xvid, 720x304, 23.976fps, 1640Kbps
Аудио: Dolby AC3 48000Hz stereo 192kbps (НТВ+)
Аудио 2: MP3 48000Hz stereo 192kbps (Eng)-
-

MediaInfo

General
Complete name                  : F:\TORRENTS\Taj-czi.Ger0j.2012.P.HDRip.avi
Format                         : AVI
Format/Info                    : Audio Video Interleave
File size                      : 1.46 GiB
Duration                       : 1h 42mn
Overall bit rate               : 2 038 Kbps
Writing application            : VirtualDubMod 1.5.10.2 (build 2540/release)
Video
ID                             : 0
Format                         : MPEG-4 Visual
Format profile                 : Advanced Simple@L5
Format settings, BVOP          : 2
Format settings, QPel          : No
Format settings, GMC           : No warppoints
Format settings, Matrix        : Custom
Muxing mode                    : Packed bitstream
Codec ID                       : XVID
Codec ID/Hint                  : XviD
Duration                       : 1h 42mn
Bit rate                       : 1 640 Kbps
Width                          : 720 pixels
Height                         : 304 pixels
Display aspect ratio           : 2.35:1
Frame rate                     : 23.976 fps
Color space                    : YUV
Chroma subsampling             : 4:2:0
Bit depth                      : 8 bits
Scan type                      : Progressive
Compression mode               : Lossy
Bits/(Pixel*Frame)             : 0.313
Stream size                    : 1.18 GiB (80%)
Writing library                : XviD 65
Audio #1
ID                             : 1
Format                         : AC-3
Format/Info                    : Audio Coding 3
Mode extension                 : CM (complete main)
Format settings, Endianness    : Big
Codec ID                       : 2000
Duration                       : 1h 42mn
Bit rate mode                  : Constant
Bit rate                       : 192 Kbps
Channel(s)                     : 2 channels
Channel positions              : Front: L R
Sampling rate                  : 48.0 KHz
Bit depth                      : 16 bits
Compression mode               : Lossy
Stream size                    : 141 MiB (9%)
Alignment                      : Split accross interleaves
Interleave, duration           : 42 ms (1.00 video frame)
Interleave, preload duration   : 500 ms
Audio #2
ID                             : 2
Format                         : MPEG Audio
Format version                 : Version 1
Format profile                 : Layer 3
Mode                           : Joint stereo
Mode extension                 : MS Stereo
Codec ID                       : 55
Codec ID/Hint                  : MP3
Duration                       : 1h 42mn
Bit rate mode                  : Constant
Bit rate                       : 192 Kbps
Channel(s)                     : 2 channels
Sampling rate                  : 48.0 KHz
Compression mode               : Lossy
Stream size                    : 141 MiB (9%)
Alignment                      : Aligned on interleaves
Interleave, duration           : 42 ms (1.00 video frame)
Interleave, preload duration   : 504 ms
Writing library                : LAME3.90.3

Скриншоты


-
-
Скачать

Скачать торрент! Герой 3D / Tai Chi Hero (Стивен Фанг / Stephen Fung) [2012, Китай, боевик, приключения, HDRip] MVO (НТВ+)

Как скачивать? · Что такое торрент? · Рейтинг и ограничения

Сайт не распространяет и не хранит электронные версии произведений, а лишь предоставляет доступ к создаваемому пользователями каталогу ссылок на торрент-файлы, которые содержат только списки хеш-сумм

[Профиль] [ЛС]
Показать сообщения:    
Ответить на тему

Текущее время: Сегодня 20:54

Часовой пояс: GMT + 4



Вы не можете начинать темы
Вы не можете отвечать на сообщения
Вы не можете редактировать свои сообщения
Вы не можете удалять свои сообщения
Вы не можете голосовать в опросах
Вы не можете прикреплять файлы к сообщениям
Вы не можете скачивать файлы