Конец света 2013: Апокалипсис по-голливудски / This Is the End (Сет Роген / Seth Rogen, Ивэн Голдберг / Evan Goldberg) [2013, США, комедия, фэнтези, HDRip] Dub (Line)

Ответить на тему
 
Автор Сообщение

user ®

Стаж: 7 лет 7 месяцев

Сообщений: 20008

Пост Пост: #1 от 05-Окт-2013 23:30

[Цитировать]

Конец света 2013: Апокалипсис по-голливудски / This Is the End- Страна: США
Жанр: комедия, фэнтези
Год выпуска: 2013
Продолжительность: 01:46:41
Перевод: Профессиональный (дублированный) Line
Cубтитры: нет-Режиссер: Сет Роген / Seth Rogen, Ивэн Голдберг / Evan Goldberg
В ролях: Джеймс Франко, Джона Хилл, Сет Роген, Джей Барушель, Дэнни МакБрайд, Крэйг Робинсон, Майкл Сера, Эмма Уотсон, Минди Калинг, Дэвид Крамхолц.
Описание: Джей Барушель приезжает в Лос-Анджелес, чтобы посетить старого друга и коллегу, актера Сета Рогена, который пригласил Барушеля на новоселье, которое организовывает Джеймс Франко. На не очень приличную вечеринку приехали многие знаменитости. Барушелю неудобно среди такого количества людей, он практически не знает лично таких знаменитостей, как: Джона Хилл, Кристофер Минц-Плассе, Майкл Сера, Крейг Робинсон, Эмма Уотсон и Ченнинг Татум. Роген, чтобы немного успокоить друга, сопровождает его в магазин за сигаретами. В магазине лучи синего света с неба вдруг унесли несколько покупателей. Перепуганные Роген и Барушель бегут в дом Франко на фоне взрывов, автомобильных аварий, а также массового хаоса, но на вечеринке синие лучи никого не тронули. Подвыпившие гости не верят россказням Барушеля и объявляют его сумасшедшим, но через несколько секунд слышат снаружи грохот...-Автор рипа: Scarabey
Качество видео: HDRip
Формат видео: AVI | Sample
Видео: 688x288 (2.35:1), 23.976 fps, XviD build 73 ~840 kbps avg, 0.18 bit/pixel
Аудио: 48 kHz, MPEG Layer 3, 2 ch, ~128.00 kbps avg

Скриншоты

Медиаинфо

Format : AVI
Format/Info : Audio Video Interleave
File size : 746 MiB
Duration : 1h 46mn
Overall bit rate : 977 Kbps
Writing application : VirtualDubMod 1.5.10.3 (build 2550/release)
Writing library : VirtualDubMod build 2550/release
Video
ID : 0
Format : MPEG-4 Visual
Format profile : Advanced Simple@L5
Format settings, BVOP : Yes
Format settings, QPel : No
Format settings, GMC : No warppoints
Format settings, Matrix : Custom
Codec ID : XVID
Codec ID/Hint : XviD
Duration : 1h 46mn
Bit rate : 840 Kbps
Width : 688 pixels
Height : 288 pixels
Display aspect ratio : 2.35:1
Frame rate : 23.976 fps
Color space : YUV
Chroma subsampling : 4:2:0
Bit depth : 8 bits
Scan type : Progressive
Bits/(Pixel*Frame) : 0.177
Stream size : 641 MiB (86%)
Writing library : XviD 73
Audio
ID : 1
Format : MPEG Audio
Format version : Version 1
Format profile : Layer 3
Codec ID : 55
Codec ID/Hint : MP3
Duration : 1h 46mn
Bit rate mode : Constant
Bit rate : 128 Kbps
Channel(s) : 2 channels
Sampling rate : 48.0 KHz
Stream size : 97.7 MiB (13%)
Alignment : Aligned on interleaves
Interleave, duration : 42 ms (1.00 video frame)
Interleave, preload duration : 504 ms
Writing library : LAME3.99r
Encoding settings : -m s -V 4 -q 2 -lowpass 17 -b 128
Скачать

Скачать торрент!

Как скачивать? · Что такое торрент? · Рейтинг и ограничения

Сайт не распространяет и не хранит электронные версии произведений, а лишь предоставляет доступ к создаваемому пользователями каталогу ссылок на торрент-файлы, которые содержат только списки хеш-сумм

[Профиль] [ЛС]
Показать сообщения:    
Ответить на тему

Текущее время: Сегодня 23:17

Часовой пояс: GMT + 4



Вы не можете начинать темы
Вы не можете отвечать на сообщения
Вы не можете редактировать свои сообщения
Вы не можете удалять свои сообщения
Вы не можете голосовать в опросах
Вы не можете прикреплять файлы к сообщениям
Вы не можете скачивать файлы