Явись, Господи, явись / Swamy Ra Ra ( Судхир Варма / Sudheer Varma ) [2013, Индия, Триллер, криминал, DVDRip] Sub Rus

Ответить на тему
 
Автор Сообщение

user ®

Стаж: 12 лет

Сообщений: 15125

Пост Пост: #1 от 05-Окт-2013 20:20

[Цитировать]

***Эксклюзивная премьера!***
Явись, Господи, явись / Swamy Ra Ra
Страна: Индия
Жанр: Триллер, криминал
Год выпуска: 2013
Продолжительность: 01:58:17
Перевод: Субтитры
Cубтитры: русские
Оригинальная аудиодорожка: Телугу
Режиссер: Судхир Варма / Sudheer Varma
В ролях: Никхил, Свати, Рави Бабу, Джива, Пуджа Рамачандран, Рави Варма
Описание: Рассказ начинается с кражи идола Бога Ганеши в Храме Ананта Падманабхасвами в штате Керала. Пройдя свой путь через разные руки, он оседает в руках плохих парней. Между тем, в Хайдарабаде промышляет группа карманников из трёх человек, под предводительством Сурьи (Никхил), и его помощников (Пуджа, Чанти). Однажды судьба сталкивает Сурью с милой симпатичной девушкой Свати (Свати), растопившей сердце воришки. История совершает оборот, когда идол, за которым гоняется лидер преступной группировки Дурга (Рави Бабу), и не только, случайно оказывается в руках Сурьи. Что произойдёт дальше, смотрите фильм!
Хорошая музыка, ненавязчивый юмор, сюжет, который не заставит скучать - вот составляющие, для того, чтобы приятно провести вечер.
Доп. информация:
Сэмпл / Sample
Перевод и редакция:net
Риппер:randy23

Релиз-группа:
Не использовать субтитры без разрешения переводчика, выкладывать на других трекерах, коммерческое распространение также не предусмотрено.
Качество видео: DVDRip
Формат видео: AVI
Видео: XviD, 720х304, 23.976 fps, 1301kbps
Аудио: AC3, 48 kHz, 5.1 (6 ch), 448 kbps
Формат субтитров: hardsub (неотключаемые)

MediaInfo

Общее
Полное имя : E:\Downloads\MOVIES\BWT\Vremeno\Yavisy.Gospodi.Yavisy.2013.DVDRip.XviD.BwTorrents.avi
Формат : AVI
Формат/Информация : Audio Video Interleave
Размер файла : 1,45 Гбайт
Продолжительность : 1 ч. 58 м.
Общий поток : 1759 Кбит/сек
Программа кодирования : VirtualDubMod 1.5.10.3 | www.virtualdub-fr.org || (build 2550/release)
Библиотека кодирования : VirtualDubMod build 2550/release
Видео
Идентификатор : 0
Формат : MPEG-4 Visual
Профиль формата : Advanced Simple@L5
Параметр BVOP формата : 2
Параметр QPel формата : Нет
Параметр GMC формата : Без точки перехода
Параметр матрицы формата : Default (MPEG)
Идентификатор кодека : XVID
Идентификатор кодека/Подсказка : XviD
Продолжительность : 1 ч. 58 м.
Битрейт : 1302 Кбит/сек
Ширина : 720 пикселей
Высота : 304 пикселя
Соотношение сторон : 2,35:1
Частота кадров : 23,976 кадра/сек
Цветовое пространство : YUV
Субдискретизация насыщенности : 4:2:0
Битовая глубина : 8 бит
Тип развёртки : Прогрессивная
Метод сжатия : С потерями
Бит/(Пиксели*Кадры) : 0.248
Размер потока : 1,08 Гбайт (74%)
Библиотека кодирования : XviD 63
Аудио
Идентификатор : 1
Формат : AC-3
Формат/Информация : Audio Coding 3
Расширение режима : CM (complete main)
Параметр Endianness формата : Big
Идентификатор кодека : 2000
Продолжительность : 1 ч. 58 м.
Вид битрейта : Постоянный
Битрейт : 448 Кбит/сек
Каналы : 6 каналов
Расположение каналов : Front: L C R, Side: L R, LFE
Частота : 48,0 КГц
Битовая глубина : 16 бит
Метод сжатия : С потерями
Размер потока : 379 Мбайт (25%)
Выравнивание : Разделение по промежуткам
Продолжительность промежутка : 42 мс. (1,00 видеокадр)
Время предзагрузки промежутка : 500 мс.

Скриншот c названием фильма

Скачать

Скачать торрент! Явись, Господи, явись / Swamy Ra Ra ( Судхир Варма / Sudheer Varma ) [2013, Индия, Триллер, криминал, DVDRip] Sub Rus

Как скачивать? · Что такое торрент? · Рейтинг и ограничения

Сайт не распространяет и не хранит электронные версии произведений, а лишь предоставляет доступ к создаваемому пользователями каталогу ссылок на торрент-файлы, которые содержат только списки хеш-сумм

[Профиль] [ЛС]
Показать сообщения:    
Ответить на тему

Текущее время: Сегодня 00:38

Часовой пояс: GMT + 4



Вы не можете начинать темы
Вы не можете отвечать на сообщения
Вы не можете редактировать свои сообщения
Вы не можете удалять свои сообщения
Вы не можете голосовать в опросах
Вы не можете прикреплять файлы к сообщениям
Вы не можете скачивать файлы