Хоббит: Нежданное путешествие / The Hobbit: An Unexpected Journey (Питер Джексон / Peter Jackson) [2012, США, Новая Зеландия, фэнтези, приключения, BDRip 1080p] Dub (Rus, Ukr) + AVO (Ю. Сербин) + Original (Eng) + Sub (Rus, Ukr, Eng)

Ответить на тему
 
Автор Сообщение

user ®

Стаж: 7 лет 7 месяцев

Сообщений: 20008

Пост Пост: #1 от 05-Окт-2013 20:20

[Цитировать]

Хоббит: Нежданное путешествие
Страна: США, Новая Зеландия
Студия: 3Foot7, Metro-Goldwyn-Mayer (MGM), New Line Cinema, WingNut Films
Жанр: фэнтези, приключения
Год выпуска: 2012
Продолжительность: 02:49:37
Перевод 1: Профессиональный (дублированный) [Blu-Ray CEE]
Перевод 2: Авторский (одноголосый закадровый) [Ю. Сербин]
Перевод 3: Профессиональный (дублированный) [Ukr]
Оригинальная аудиодорожка: английская
Cубтитры: русские (forced, R5, Voronine), украинские (forced), английские (SDH, SDH Colored)
Режиссер: Питер Джексон / Peter Jackson
В ролях: Мартин Фриман, Евангелина Лилли, Люк Эванс, Кейт Бланшетт, Элайджа Вуд, Орландо Блум, Хьюго Уивинг, Иэн МакКеллен, Кристофер Ли, Энди Серкис, Ричард Армитейдж, Ли Пейс, Йен Холм, Эйдан Тёрнер, Билли Конноли, Джеймс Незбитт, Брет МакКензи, Микаэл Персбрандт, Грэм МакТавиш, Бэрри Хамфриз, Доминик Китинг, Кен Стотт, Дин О'Горман, Сильвестр МакКой, Джед Брофи, Джеффри Томас, Стивен Хантер, Крэйг Холл, Уильям Кирхер, Джон Коллен, Питер Хэмблтон, Кэти Джексон, Марк Хэдлоу, Майкл Мизрахи, Робин Керр, Рэй Хенвуд
Описание: Экранизация повести Джона Р.Р. Толкина «Хоббит, или Туда и обратно», повествующей о Бильбо Бэггинсе, который становится участником грандиозного путешествия, цель которого — вернуть Королевство гномов Эребор, захваченное драконом Смогом. Неожиданно к нему присоединяется волшебник Гэндальф Серый, и Бильбо оказывается в компании тринадцати гномов под предводительством легендарного воина Торина Дубощита. Опасными тропами это путешествие приводит их в Дикие Земли, кишащие гоблинами и орками, смертоносными варгами и меняющими облик, гигантскими пауками и колдунами. Там скромный Бильбо Бэггинс и становится обладателем «прелестного» кольца Голлума, которое таит в себе странные и неожиданные возможности… Это простое золотое кольцо связано с судьбой Средиземья настолько тесно, что Бильбо и представить себе этого не может.

Релиз: fanatus
Качество видео: BDRip 1080p
Исходник: THE_HOBBIT_PT1_2012_BD-REMUX_HDCLUB
Контейнер: MKV
Видео: MPEG-4 AVC, 12 Mbps, 1920x800 (2.40:1), 23.976 fps, 0.326 bit/pixel
Аудио 1: русский (AC3, 6 ch, 48 kHz, 448 kbps) Dub (Blu-Ray CEE)
Аудио 2: русский (DTS, 6 ch, 48 kHz, 1510 kbps) AVO (Y. Serbin)
Аудио 3: украинский (AC3, 6 ch, 48 kHz, 448 kbps) Dub (Ukr)
Аудио 4: английский (DTS, 6 ch, 48 kHz, 1510 kbps) Original
Формат субтитров: softsub (SRT)
Главы: есть

MediaInfo

General
Unique ID : 211787571829967112240730563532515703918 (0x9F54CD7A0DB68B548DEFC8E90433FC6E)
Complete name : F:\The Hobbit. An Unexpected Journey.2012.x264.BDRip.1080p.fanatus.mkv
Format : Matroska
Format version : Version 2
File size : 18.9 GiB
Duration : 2h 49mn
Overall bit rate : 15.9 Mbps
Movie name : The Hobbit. An Unexpected Journey (2012) - fanatus
Encoded date : UTC 2013-10-04 19:43:13
Writing application : mkvmerge v3.4.0 ('Rapunzel') сборка от May 15 2010 09:38:20
Writing library : libebml v0.8.0 + libmatroska v0.9.0
Video
ID : 1
Format : AVC
Format/Info : Advanced Video Codec
Format profile : High@L4.1
Format settings, CABAC : Yes
Format settings, ReFrames : 5 frames
Codec ID : V_MPEG4/ISO/AVC
Duration : 2h 49mn
Bit rate : 12.0 Mbps
Width : 1 920 pixels
Height : 800 pixels
Display aspect ratio : 2.40:1
Frame rate : 23.976 fps
Color space : YUV
Chroma subsampling : 4:2:0
Bit depth : 8 bits
Scan type : Progressive
Bits/(Pixel*Frame) : 0.326
Stream size : 13.8 GiB (73%)
Title : The Hobbit. An Unexpected Journey (2012)
Writing library : x264 core 138 r2358kMod 9e941d1
Encoding settings : cabac=1 / ref=5 / deblock=1:-3:-3 / analyse=0x3:0x113 / me=tesa / subme=11 / psy=1 / fade_compensate=0.00 / psy_rd=1.20:0.00 / mixed_ref=1 / me_range=32 / chroma_me=1 / trellis=2 / 8x8dct=1 / cqm=0 / deadzone=21,11 / fast_pskip=0 / chroma_qp_offset=-2 / threads=16 / lookahead_threads=4 / sliced_threads=0 / nr=0 / decimate=0 / interlaced=0 / bluray_compat=0 / constrained_intra=0 / bframes=10 / b_pyramid=2 / b_adapt=2 / b_bias=0 / direct=3 / weightb=1 / open_gop=0 / weightp=2 / keyint=240 / keyint_min=23 / scenecut=40 / intra_refresh=0 / rc_lookahead=240 / rc=2pass / mbtree=0 / bitrate=12000 / ratetol=1.0 / qcomp=0.65 / qpmin=0 / qpmax=69 / qpstep=4 / cplxblur=20.0 / qblur=0.5 / vbv_maxrate=50000 / vbv_bufsize=62500 / nal_hrd=none / ip_ratio=1.40 / pb_ratio=1.30 / aq=3:0.95 / zones=229319,243806,b=0.65
Language : English
Default : Yes
Forced : No
Audio #1
ID : 2
Format : AC-3
Format/Info : Audio Coding 3
Mode extension : CM (complete main)
Format settings, Endianness : Big
Codec ID : A_AC3
Duration : 2h 49mn
Bit rate mode : Constant
Bit rate : 448 Kbps
Channel(s) : 6 channels
Channel positions : Front: L C R, Side: L R, LFE
Sampling rate : 48.0 KHz
Bit depth : 16 bits
Compression mode : Lossy
Stream size : 544 MiB (3%)
Title : Dub
Language : Russian
Default : Yes
Forced : No
Audio #2
ID : 3
Format : DTS
Format/Info : Digital Theater Systems
Codec ID : A_DTS
Duration : 2h 49mn
Bit rate mode : Constant
Bit rate : 1 510 Kbps
Channel(s) : 6 channels
Channel positions : Front: L C R, Side: L R, LFE
Sampling rate : 48.0 KHz
Bit depth : 24 bits
Compression mode : Lossy
Stream size : 1.79 GiB (9%)
Title : AVO (Y. Serbin)
Language : Russian
Default : No
Forced : No
Audio #3
ID : 4
Format : AC-3
Format/Info : Audio Coding 3
Mode extension : CM (complete main)
Format settings, Endianness : Big
Codec ID : A_AC3
Duration : 2h 49mn
Bit rate mode : Constant
Bit rate : 448 Kbps
Channel(s) : 6 channels
Channel positions : Front: L C R, Side: L R, LFE
Sampling rate : 48.0 KHz
Bit depth : 16 bits
Compression mode : Lossy
Stream size : 544 MiB (3%)
Title : Dub
Language : Ukrainian
Default : No
Forced : No
Audio #4
ID : 5
Format : DTS
Format/Info : Digital Theater Systems
Codec ID : A_DTS
Duration : 2h 49mn
Bit rate mode : Constant
Bit rate : 1 510 Kbps
Channel(s) : 6 channels
Channel positions : Front: L C R, Side: L R, LFE
Sampling rate : 48.0 KHz
Bit depth : 24 bits
Compression mode : Lossy
Stream size : 1.79 GiB (9%)
Title : Original
Language : English
Default : No
Forced : No
Text #1
ID : 6
Format : UTF-8
Codec ID : S_TEXT/UTF8
Codec ID/Info : UTF-8 Plain Text
Title : Forced
Language : Russian
Default : Yes
Forced : Yes
Text #2
ID : 7
Format : UTF-8
Codec ID : S_TEXT/UTF8
Codec ID/Info : UTF-8 Plain Text
Title : R5
Language : Russian
Default : No
Forced : No
Text #3
ID : 8
Format : UTF-8
Codec ID : S_TEXT/UTF8
Codec ID/Info : UTF-8 Plain Text
Title : Voronine
Language : Russian
Default : No
Forced : No
Text #4
ID : 9
Format : UTF-8
Codec ID : S_TEXT/UTF8
Codec ID/Info : UTF-8 Plain Text
Title : Forced
Language : Ukrainian
Default : No
Forced : No
Text #5
ID : 10
Format : UTF-8
Codec ID : S_TEXT/UTF8
Codec ID/Info : UTF-8 Plain Text
Title : SDH
Language : English
Default : No
Forced : No
Text #6
ID : 11
Format : UTF-8
Codec ID : S_TEXT/UTF8
Codec ID/Info : UTF-8 Plain Text
Title : SDH Colored
Language : English
Default : No
Forced : No
Menu
00:00:00.000 : en:Chapter 01
00:08:51.530 : en:Chapter 02
00:12:58.903 : en:Chapter 03
00:16:34.619 : en:Chapter 04
00:20:50.666 : en:Chapter 05
00:25:09.007 : en:Chapter 06
00:33:14.409 : en:Chapter 07
00:38:26.804 : en:Chapter 08
00:43:40.368 : en:Chapter 09
00:50:12.301 : en:Chapter 10
00:55:16.939 : en:Chapter 11
00:57:04.838 : en:Chapter 12
01:07:51.943 : en:Chapter 13
01:12:11.369 : en:Chapter 14
01:16:03.559 : en:Chapter 15
01:22:06.463 : en:Chapter 16
01:28:49.991 : en:Chapter 17
01:32:03.518 : en:Chapter 18
01:33:42.534 : en:Chapter 19
01:40:29.607 : en:Chapter 20
01:43:06.847 : en:Chapter 21
01:49:12.963 : en:Chapter 22
01:54:04.588 : en:Chapter 23
01:56:58.094 : en:Chapter 24
02:10:27.945 : en:Chapter 25
02:12:26.021 : en:Chapter 26
02:13:37.718 : en:Chapter 27
02:17:59.438 : en:Chapter 28
02:20:09.359 : en:Chapter 29
02:22:59.111 : en:Chapter 30
02:33:58.563 : en:Chapter 31
02:39:27.558 : en:Chapter 32

x264 [info]

x264 [info]: 1920x800p 1:1 @ 24000/1001 fps (cfr)
x264 [info]: using SAR=1/1
x264 [info]: using cpu capabilities: MMX2 SSE2Fast LZCNT
x264 [info]: profile High, level 4.1
x264 [info]: cabac=1 ref=5 deblock=1:-3:-3 analyse=0x3:0x113 me=tesa subme=11 psy=1 fade_compensate=0.00 psy_rd=1.20:0.00 mixed_ref=1 me_range=32 chroma_me=1 trellis=2 8x8dct=1 cqm=0 deadzone=21,11 fast_pskip=0 chroma_qp_offset=-2 threads=16 lookahead_threads=4 sliced_threads=0 nr=0 decimate=0 interlaced=0 bluray_compat=0 constrained_intra=0 bframes=10 b_pyramid=2 b_adapt=2 b_bias=0 direct=3 weightb=1 open_gop=0 weightp=2 keyint=240 keyint_min=23 scenecut=40 intra_refresh=0 rc_lookahead=240 rc=2pass mbtree=0 bitrate=12000 ratetol=1.0 qcomp=0.65 qpmin=0 qpmax=69 qpstep=4 cplxblur=20.0 qblur=0.5 vbv_maxrate=50000 vbv_bufsize=62500 nal_hrd=none ip_ratio=1.40 pb_ratio=1.30 aq=3:0.95 zones=229319,243806,b=0.65
x264 [info]: frame I:1773 Avg QP:13.10 size:237489
x264 [info]: frame P:68496 Avg QP:16.23 size:107158
x264 [info]: frame B:173764 Avg QP:17.33 size: 43159
x264 [info]: consecutive B-frames: 5.1% 7.4% 11.6% 38.5% 15.5% 15.8% 3.3% 1.5% 0.3% 0.2% 0.7%
x264 [info]: mb I I16..4: 7.7% 58.6% 33.7%
x264 [info]: mb P I16..4: 1.3% 23.8% 4.7% P16..4: 24.0% 29.2% 12.0% 0.0% 0.0% skip: 5.0%
x264 [info]: mb B I16..4: 0.3% 3.5% 0.8% B16..8: 33.3% 23.0% 4.8% direct:12.4% skip:22.0% L0:40.3% L1:39.0% BI:20.7%
x264 [info]: 8x8 transform intra:77.6% inter:41.9%
x264 [info]: direct mvs spatial:97.8% temporal:2.2%
x264 [info]: coded y,uvDC,uvAC intra: 94.6% 89.2% 75.3% inter: 47.0% 38.2% 17.7%
x264 [info]: i16 v,h,dc,p: 25% 9% 9% 57%
x264 [info]: i8 v,h,dc,ddl,ddr,vr,hd,vl,hu: 10% 9% 14% 9% 11% 11% 10% 12% 14%
x264 [info]: i4 v,h,dc,ddl,ddr,vr,hd,vl,hu: 13% 11% 11% 7% 12% 12% 12% 9% 13%
x264 [info]: i8c dc,h,v,p: 49% 19% 17% 15%
x264 [info]: Weighted P-Frames: Y:3.4% UV:1.8%
x264 [info]: ref P L0: 54.8% 12.7% 18.7% 6.8% 6.1% 0.8% 0.0%
x264 [info]: ref B L0: 83.3% 12.1% 3.4% 1.1%
x264 [info]: ref B L1: 95.2% 4.8%
x264 [info]: kb/s:11994.57
x264 [info]: encoded 244033 frames, 1.57 fps, 11994.57 kb/s, duration 43:07:11.13

Скриншот c названием фильма

Скачать

Скачать торрент!

Как скачивать? · Что такое торрент? · Рейтинг и ограничения

Сайт не распространяет и не хранит электронные версии произведений, а лишь предоставляет доступ к создаваемому пользователями каталогу ссылок на торрент-файлы, которые содержат только списки хеш-сумм

[Профиль] [ЛС]
Показать сообщения:    
Ответить на тему

Текущее время: Сегодня 12:33

Часовой пояс: GMT + 4



Вы не можете начинать темы
Вы не можете отвечать на сообщения
Вы не можете редактировать свои сообщения
Вы не можете удалять свои сообщения
Вы не можете голосовать в опросах
Вы не можете прикреплять файлы к сообщениям
Вы не можете скачивать файлы