Поздняя осень / Man-choo / Late Autumn (Тае-Йонг Ким / Tae-Yong Kim) [2010, США, Корея Южная, драма, HDRip] DVO

Ответить на тему
 
Автор Сообщение

user ®

Стаж: 13 лет

Сообщений: 15071

Пост Пост: #1 от 05-Окт-2013 09:20

[Цитировать]

Поздняя осень / Man-choo / Late Autumn
Страна: США, Корея Южная
Жанр: драма
Год выпуска: 2010
Продолжительность: 01:53:29
Перевод: Любительский (двухголосый закадровый) [pandora2177], [den904]
Cубтитры: нет
Оригинальная аудиодорожка: нет-Режиссер: Тае-Йонг Ким / Tae-Yong Kim
В ролях: Тан Вэй, Хён Бин, Джеймс С. Бёрнс, Джун Сунг Ким, Джон Ву, Дэнни Лэнг, Катарина Чои, Стив Андерсон, Хайди Баррьентес, Никита Брезников-Описание: Это рассказ о романе между условно-досрочно освобожденной женщиной и человеком-беглецом. Фильм, снятый на фоне туманно-городского пейзажа Сиэтла, как нельзя лучше характеризует их парадоксально-интенсивную, но мимолетную историю любви.-
-Качество видео: HDRip
Формат видео: AVI
Видео: XviD, 720x304 (2,35:1), 23.9 fps, ~1395 kbps avg, 0.26 bit/pixel
Аудио: 48 kHz, AC3 Dolby Digital, 6 ch, ~448 kbps

MediaInfo

Общее
Полное имя : D:\Поздняя осень_2010.avi
Формат : AVI
Формат/Информация : Audio Video Interleave
Размер файла : 1,47 Гбайт
Продолжительность : 1 ч. 53 м.
Общий поток : 1852 Кбит/сек
Программа кодирования : VirtualDubMod 1.5.10.3 | www.virtualdub-fr.org || (build 2550/release)
Библиотека кодирования : VirtualDubMod build 2550/release
Видео
Идентификатор : 0
Формат : MPEG-4 Visual
Профиль формата : Advanced Simple@L5
Параметр BVOP формата : 1
Параметр QPel формата : Нет
Параметр GMC формата : Без точки перехода
Параметр матрицы формата : Default (MPEG)
Идентификатор кодека : XVID
Идентификатор кодека/Подсказка : XviD
Продолжительность : 1 ч. 53 м.
Битрейт : 1395 Кбит/сек
Ширина : 720 пикселей
Высота : 304 пикселя
Соотношение сторон : 2,35:1
Частота кадров : 23,976 кадра/сек
Цветовое пространство : YUV
Субдискретизация насыщенности : 4:2:0
Битовая глубина : 8 бит
Тип развёртки : Прогрессивная
Метод сжатия : С потерями
Бит/(Пиксели*Кадры) : 0.266
Размер потока : 1,11 Гбайт (75%)
Библиотека кодирования : XviD 64
Аудио
Идентификатор : 1
Формат : AC-3
Формат/Информация : Audio Coding 3
Расширение режима : CM (complete main)
Параметр Endianness формата : Big
Идентификатор кодека : 2000
Продолжительность : 1 ч. 53 м.
Вид битрейта : Постоянный
Битрейт : 448 Кбит/сек
Каналы : 6 каналов
Расположение каналов : Front: L C R, Side: L R, LFE
Частота : 48,0 КГц
Битовая глубина : 16 бит
Метод сжатия : С потерями
Размер потока : 364 Мбайт (24%)
Выравнивание : Разделение по промежуткам
Продолжительность промежутка : 42 мс. (1,00 видеокадр)
Время предзагрузки промежутка : 500 мс.

Скриншоты

Скачать

Скачать торрент! Поздняя осень / Man-choo / Late Autumn (Тае-Йонг Ким / Tae-Yong Kim) [2010, США, Корея Южная, драма, HDRip] DVO

Как скачивать? · Что такое торрент? · Рейтинг и ограничения

Сайт не распространяет и не хранит электронные версии произведений, а лишь предоставляет доступ к создаваемому пользователями каталогу ссылок на торрент-файлы, которые содержат только списки хеш-сумм

[Профиль] [ЛС]
Показать сообщения:    
Ответить на тему

Текущее время: Сегодня 11:47

Часовой пояс: GMT + 4



Вы не можете начинать темы
Вы не можете отвечать на сообщения
Вы не можете редактировать свои сообщения
Вы не можете удалять свои сообщения
Вы не можете голосовать в опросах
Вы не можете прикреплять файлы к сообщениям
Вы не можете скачивать файлы