Приди, любовь моя / Жить и любить / Aao Pyar Karen (Равиндра Пипат / Ravindra Peepat) [1994, Индия, Мелодрама, DVDRip] DVO + Original

Ответить на тему
 
Автор Сообщение

user ®

Стаж: 12 лет

Сообщений: 15125

Пост Пост: #1 от 05-Окт-2013 06:10

[Цитировать]

Приди, любовь моя / Жить и любить / Aao Pyar Karen
-Страна: Индия
Жанр: Драма, мелодрама
Год выпуска: 1994
Продолжительность: 02:24:30-Язык: Хинди
Перевод: Профессиональный (двухголосый, закадровый)
Cубтитры: Нет
Оригинальная дорожка: Хинди-Режиссер: Равиндра Пипат / Ravindra Peepat-В ролях: Саиф Али Кхан, Шилпа Шетти, Соми Али, Прем Чопра, Гульшан Гровер-Описание: Анжали Прасад Синха поклялась своему умирающему мужу, что никогда не пустит в дом их сына Сурая, который женился а простой девушке, вопреки их воли. Сурай и его жена погибают в автокатастрофе, но перед смертью они успевают сказать своему сыну Раджу, что он должен любой ценой вернуть благосклонность своей бабки.-- | Кинопоиск--Качество видео: DVDRip
Формат видео: AVI-Видео: XviD, 704x304, 25 fps, 1109 Kbps
Аудио #1: MP3, 44.1 kHz, 2.0 stereo, 128 Kbps [Russian]
Аудио #2: MP3, 44.1 kHz, 2.0 stereo, 128 Kbps [Hindi]--Риппер, синхронизация звука: soso4eg-- -
-
-

Скриншот с названием

Скриншоты


-

MI

Общее
Полное имя : C:\INDIYA\[Релизы]\Pridi.Lyubov.moya.1994.DVDRip.XviD-soso4eg.avi
Формат : AVI
Формат/Информация : Audio Video Interleave
Размер файла : 1,39 Гбайт
Продолжительность : 2 ч. 24 м.
Общий поток : 1380 Кбит/сек
Название фильма : Pridi.Lyubov.moya.1994.DVDRip.XviD-soso4eg
Программа кодирования : VirtualDubMod 1.5.10.3 | www.virtualdub-fr.org || (build 2550/release)
Видео
Идентификатор : 0
Формат : MPEG-4 Visual
Профиль формата : Advanced Simple@L5
Параметр BVOP формата : 2
Параметр QPel формата : Нет
Параметр GMC формата : Без точки перехода
Параметр матрицы формата : Default (H.263)
Идентификатор кодека : XVID
Идентификатор кодека/Подсказка : XviD
Продолжительность : 2 ч. 24 м.
Битрейт : 1109 Кбит/сек
Ширина : 704 пикселя
Высота : 304 пикселя
Соотношение сторон : 2,35:1
Частота кадров : 25,000 кадров/сек
Цветовое пространство : YUV
Субдискретизация насыщенности : 4:2:0
Битовая глубина : 8 бит
Тип развёртки : Прогрессивная
Метод сжатия : С потерями
Бит/(Пиксели*Кадры) : 0.207
Размер потока : 1,12 Гбайт (80%)
Библиотека кодирования : XviD 1.2.1 (UTC 2008-12-04)
Аудио #1
Идентификатор : 1
Формат : MPEG Audio
Версия формата : Version 1
Профиль формата : Layer 3
Режим : Joint stereo
Расширение режима : MS Stereo
Идентификатор кодека : 55
Идентификатор кодека/Подсказка : MP3
Продолжительность : 2 ч. 24 м.
Вид битрейта : Постоянный
Битрейт : 128 Кбит/сек
Каналы : 2 канала
Частота : 44,1 КГц
Метод сжатия : С потерями
Размер потока : 132 Мбайт (9%)
Выравнивание : Разделение по промежуткам
Продолжительность промежутка : 40 мс. (1,00 видеокадр)
Время предзагрузки промежутка : 500 мс.
Аудио #2
Идентификатор : 2
Формат : MPEG Audio
Версия формата : Version 1
Профиль формата : Layer 3
Режим : Joint stereo
Расширение режима : MS Stereo
Идентификатор кодека : 55
Идентификатор кодека/Подсказка : MP3
Продолжительность : 2 ч. 24 м.
Вид битрейта : Постоянный
Битрейт : 128 Кбит/сек
Каналы : 2 канала
Частота : 44,1 КГц
Метод сжатия : С потерями
Размер потока : 132 Мбайт (9%)
Выравнивание : Разделение по промежуткам
Продолжительность промежутка : 40 мс. (1,00 видеокадр)
Время предзагрузки промежутка : 500 мс.
-
Скачать

Скачать торрент! Приди, любовь моя / Жить и любить / Aao Pyar Karen (Равиндра Пипат / Ravindra Peepat) [1994, Индия, Мелодрама, DVDRip] DVO + Original

Как скачивать? · Что такое торрент? · Рейтинг и ограничения

Сайт не распространяет и не хранит электронные версии произведений, а лишь предоставляет доступ к создаваемому пользователями каталогу ссылок на торрент-файлы, которые содержат только списки хеш-сумм

[Профиль] [ЛС]
Показать сообщения:    
Ответить на тему

Текущее время: Сегодня 12:30

Часовой пояс: GMT + 4



Вы не можете начинать темы
Вы не можете отвечать на сообщения
Вы не можете редактировать свои сообщения
Вы не можете удалять свои сообщения
Вы не можете голосовать в опросах
Вы не можете прикреплять файлы к сообщениям
Вы не можете скачивать файлы