Школа танцев и обольщения Мэрилин Хотчкисс / Marilyn Hotchkiss\' Ballroom Dancing & Charm School (Рэндолл Миллер / Randall Miller) [2005, США, драма, мелодрама, комедия, BDRip 720p] VO (М.Чадов) + Sub Rus, Eng + Original Eng

Ответить на тему
 
Автор Сообщение

user ®

Стаж: 7 лет 7 месяцев

Сообщений: 20008

Пост Пост: #1 от 04-Окт-2013 19:10

[Цитировать]

Школа танцев и обольщения Мэрилин Хотчкисс / Marilyn Hotchkiss' Ballroom Dancing & Charm School
Страна: США
Жанр: драма, мелодрама, комедия
Год выпуска: 2005
Продолжительность: 01:39:43
Перевод: Одноголосый закадровый М.Чадов по переводу Yennifer
Cубтитры: русские (Yennifer), английские
Оригинальная аудиодорожка: английский
Режиссер: Рэндолл Миллер / Randall Miller
В ролях: Роберт Карлайл, Мариса Томей, Джон Гудмен, Шон Эстин, Тереза Джонстон, Келли Паркер, Майкл Бауэ, Дэнни ДеВито
Описание: Вдовец, Фрэнк Кин, находящийся в глубокой депрессии, после смерти жены, становится свидетелем автомобильной аварии. Перед смертью, водитель той машины рассказывает Фрэнку свою историю, и просит его заменить себя на встрече, назначенной 40 лет назад, с девочкой, которая ему нравилась в детстве, в Школе танцев и обольщения Мэрилин Хотчкисс.
Спонсор озвучки : будулайроманов

Сэмпл: http://multi-up.com/909534
Тип релиза: BDRip 720p
Контейнер: MKV
Видео: MPEG-4 AVC, 1280x528, 5829 кбит/сек, 25.00 fps
Аудио: 48 kHz, AC3 ,2/0 (L,R) ch , ~384.00 kbps avg М.Чадов
Аудио 2: 48 kHz, AC3 ,2/0 (L,R) ch , ~384.00 kbps avg original
Формат субтитров: softsub (SRT)

MediaInfo

ШКОЛА ТАНЦЕВ И ОБОЛЬЩЕНИЯ (VO+SUB).2005.720p.BluRay.x264-lord_i_74 (1).mkv
Формат : Matroska
Версия формата : Version 2
Размер файла : 4,59 Гбайт
Продолжительность : 1 ч. 39 м.
Общий поток : 6592 Кбит/сек
Название фильма : релиз Переулок Переводмана
Дата кодирования : UTC 2013-10-04 05:36:12
Программа кодирования : mkvmerge v5.0.1 ('Es ist Sommer') built on Oct 9 2011 11:55:43
Библиотека кодирования : libebml v1.2.2 + libmatroska v1.3.0
Видео
Идентификатор : 1
Формат : AVC
Формат/Информация : Advanced Video Codec
Профиль формата : High@L4.1
Параметр CABAC формата : Да
Параметр ReFrames формата : 5 кадров
Параметры GOP формата : M=4, N=23
Идентификатор кодека : V_MPEG4/ISO/AVC
Продолжительность : 1 ч. 39 м.
Битрейт : 5829 Кбит/сек
Ширина : 1280 пикс.
Высота : 528 пикс.
Соотношение сторон : 2,40:1
Частота кадров : 25,000 кадр/сек
Цветовое пространство : YUV
Подвыборка цветности : 4:2:0
Битовая глубина : 8 бит
Тип развёртки : Прогрессивная
Бит/(Пиксели*Кадры) : 0.345
Размер потока : 3,96 Гбайт (86%)
Заголовок : Marilyn.Hotchkiss.Ballroom.Dancing.And.Charm.School.2005.720p.BluRay.x264-BRMP
Библиотека кодирования : x264 core 114 r1900 60ef1f8
Настройки программы : cabac=1 / ref=5 / deblock=1:0:0 / analyse=0x3:0x133 / me=umh / subme=7 / psy=1 / psy_rd=1.00:0.00 / mixed_ref=1 / me_range=16 / chroma_me=1 / trellis=1 / 8x8dct=1 / cqm=0 / deadzone=21,11 / fast_pskip=0 / chroma_qp_offset=-2 / threads=12 / sliced_threads=0 / nr=0 / decimate=1 / interlaced=0 / constrained_intra=0 / bframes=3 / b_pyramid=2 / b_adapt=1 / b_bias=0 / direct=1 / weightb=1 / open_gop=0 / weightp=2 / keyint=250 / keyint_min=25 / scenecut=40 / intra_refresh=0 / rc_lookahead=40 / rc=2pass / mbtree=1 / bitrate=5829 / ratetol=1.0 / qcomp=0.60 / qpmin=10 / qpmax=51 / qpstep=4 / cplxblur=20.0 / qblur=0.5 / ip_ratio=1.40 / aq=1:1.00
Язык : English
Аудио #1
Идентификатор : 2
Формат : AC-3
Формат/Информация : Audio Coding 3
Расширение режима : CM (complete main)
Идентификатор кодека : A_AC3
Продолжительность : 1 ч. 39 м.
Вид битрейта : Постоянный
Битрейт : 384 Кбит/сек
Каналы : 2 канала
Расположение каналов : Front: L R
Частота : 48,0 КГц
Битовая глубина : 16 бит
Метод сжатия : С потерями
Размер потока : 274 Мбайт (6%)
Заголовок : VO М.Чадов по переводу Yennifer
Язык : Russian
Аудио #2
Идентификатор : 3
Формат : AC-3
Формат/Информация : Audio Coding 3
Расширение режима : CM (complete main)
Идентификатор кодека : A_AC3
Продолжительность : 1 ч. 39 м.
Вид битрейта : Постоянный
Битрейт : 384 Кбит/сек
Каналы : 2 канала
Расположение каналов : Front: L R
Частота : 48,0 КГц
Битовая глубина : 16 бит
Метод сжатия : С потерями
Размер потока : 274 Мбайт (6%)
Язык : English
Текст #1
Идентификатор : 4
Формат : UTF-8
Идентификатор кодека : S_TEXT/UTF8
Идентификатор кодека/Информация : UTF-8 Plain Text
Заголовок : sub Yennifer, редактор Тамина
Язык : Russian
Текст #2
Идентификатор : 5
Формат : UTF-8
Идентификатор кодека : S_TEXT/UTF8
Идентификатор кодека/Информация : UTF-8 Plain Text
Язык : English

Скриншоты

Скачать

Скачать торрент!

Как скачивать? · Что такое торрент? · Рейтинг и ограничения

Сайт не распространяет и не хранит электронные версии произведений, а лишь предоставляет доступ к создаваемому пользователями каталогу ссылок на торрент-файлы, которые содержат только списки хеш-сумм

[Профиль] [ЛС]
Показать сообщения:    
Ответить на тему

Текущее время: Сегодня 02:08

Часовой пояс: GMT + 4



Вы не можете начинать темы
Вы не можете отвечать на сообщения
Вы не можете редактировать свои сообщения
Вы не можете удалять свои сообщения
Вы не можете голосовать в опросах
Вы не можете прикреплять файлы к сообщениям
Вы не можете скачивать файлы