Последний вариант / Смертельная связь / Мёртвая связь / Комбинация поражения / Final combination / Dead connection (Найджел Дик / Nigel Dick) [1994, США, Триллер, драма, детектив, HDTV 1080i] DVO (НТВ+) + AVO (Андрей Дольский) + Original Eng

Ответить на тему
 
Автор Сообщение

user ®

Стаж: 7 лет 7 месяцев

Сообщений: 20008

Пост Пост: #1 от 04-Окт-2013 19:10

[Цитировать]

Последний вариант / Смертельная связь / Мёртвая связь / Комбинация поражения / Final combination / Dead connection
Страна: США
Студия: PolyGram Filmed Entertainment, Propaganda Films, Viacom Productions
Жанр: Триллер, драма, детектив
Год выпуска: 1994
Продолжительность: 01:29:09
Перевод 1: Профессиональный (двухголосый закадровый) НТВ+
Перевод 2: Авторский (одноголосый закадровый) Андрей Дольский
Cубтитры: нет
Оригинальная аудиодорожка: английский
Режиссер: Найджел Дик / Nigel Dick
В ролях: Майкл Мэдсен, Лиза Синклер, Саймон Кенни, Николас Кенни, Эндрю Шоу, Паркер Поузи, Конни Бланкеншип, Джон Клэйтон Шафер, Джимми Ортега
Описание: Работая в отделе по расследованию убийств, детектив Диксон встречается с бессмысленным насилием гораздо чаще, чем ему хотелось бы. Он преследует убийц и собирает трупы их жертв. Последнее дело Диксона не представляет собой ничего нового — изнасилование и убийство двух молодых женщин в местном мотеле, неоплаченный счет за разговор по секс — телефону и целая куча необъяснимых загадок.
Расследование заходит в тупик, но на помощь детективу приходит журналистка Кэтрин, красота и обаяние, которой совершенно очаровывают Диксона. У Кэтрин имеется информация о похожих убийствах, совершенных за последнее время по всей стране. С ее помощью Диксон выслеживает таинственного убийцу — обаятельного незнакомца, обольщающего, а затем убивающего молодых женщин, и начинается смертельно опасный поединок с преступником.

Доп. информация:
За авторский одноголосый закадровый перевод Андрея Дольского спасибо гришпан
Тип релиза: HDTV 1080i
Контейнер: MKV
Видео: AVC 1920x1080 (16:9)) 25.0fps Bit rate 4802Kbps
Аудио 1: MP2 48.0 KHz 2ch. 192kbps rus
Аудио 2: AC3 48.0 KHz 2ch. 192kbps rus
Аудио 3: AC3 48.0 KHz 2ch. 192kbps eng

MediaInfo

General
Complete name : E:\torrent\Final combination_HDTV 1080i.mkv
Format : Matroska
File size : 3.42 GiB
Duration : 1h 29mn
Overall bit rate : 5 488 Kbps
Encoded date : UTC 2013-10-04 06:30:09
Writing application : mkvmerge v5.7.0 ('The Whirlwind') built on Jul 8 2012 20:08:51
Writing library : libebml v1.2.3 + libmatroska v1.3.0
Video
ID : 1
Format : AVC
Format/Info : Advanced Video Codec
Format profile : High@L4.0
Format settings, CABAC : Yes
Format settings, ReFrames : 3 frames
Format settings, GOP : M=1, N=14
Muxing mode : Container profile=Unknown@4.0
Codec ID : V_MPEG4/ISO/AVC
Duration : 1h 29mn
Bit rate : 4 802 Kbps
Width : 1 920 pixels
Height : 1 080 pixels
Display aspect ratio : 16:9
Frame rate : 50.000 fps
Original frame rate : 25.000 fps
Standard : Component
Color space : YUV
Chroma subsampling : 4:2:0
Bit depth : 8 bits
Scan type : Interlaced
Scan order : Top Field First
Bits/(Pixel*Frame) : 0.046
Stream size : 2.99 GiB (88%)
Title : Final combination_HDTV 1080i
Color primaries : BT.709-5, BT.1361, IEC 61966-2-4, SMPTE RP177
Transfer characteristics : BT.709-5, BT.1361
Matrix coefficients : BT.709-5, BT.1361, IEC 61966-2-4 709, SMPTE RP177
Audio #1
ID : 2
Format : MPEG Audio
Format version : Version 1
Format profile : Layer 2
Codec ID : A_MPEG/L2
Codec ID/Hint : MP2
Duration : 1h 29mn
Bit rate mode : Constant
Bit rate : 192 Kbps
Channel(s) : 2 channels
Sampling rate : 48.0 KHz
Stream size : 122 MiB (3%)
Title : Final combination_MP2_DVO_NTV+
Language : Russian
Audio #2
ID : 3
Format : AC-3
Format/Info : Audio Coding 3
Mode extension : CM (complete main)
Codec ID : A_AC3
Duration : 1h 29mn
Bit rate mode : Constant
Bit rate : 192 Kbps
Channel(s) : 2 channels
Channel positions : Front: L R
Sampling rate : 48.0 KHz
Bit depth : 16 bits
Stream size : 122 MiB (3%)
Title : Final combination_AC3_AVO
Language : Russian
Audio #3
ID : 4
Format : AC-3
Format/Info : Audio Coding 3
Mode extension : CM (complete main)
Codec ID : A_AC3
Duration : 1h 29mn
Bit rate mode : Constant
Bit rate : 192 Kbps
Channel(s) : 2 channels
Channel positions : Front: L R
Sampling rate : 48.0 KHz
Bit depth : 16 bits
Stream size : 122 MiB (3%)
Title : Final combination_AC3_original eng

Скриншот с названием фильма

Скриншоты


Скачать

Скачать торрент!

Как скачивать? · Что такое торрент? · Рейтинг и ограничения

Сайт не распространяет и не хранит электронные версии произведений, а лишь предоставляет доступ к создаваемому пользователями каталогу ссылок на торрент-файлы, которые содержат только списки хеш-сумм

[Профиль] [ЛС]
Показать сообщения:    
Ответить на тему

Текущее время: Сегодня 07:58

Часовой пояс: GMT + 4



Вы не можете начинать темы
Вы не можете отвечать на сообщения
Вы не можете редактировать свои сообщения
Вы не можете удалять свои сообщения
Вы не можете голосовать в опросах
Вы не можете прикреплять файлы к сообщениям
Вы не можете скачивать файлы