Тёмное прикосновение / Поцелуй мамочку на ночь / Dark touch (Марина де Ван / Marina de Van) [2013, Франция, Ирландия, Швеция, триллер, ужас, WEB-DLRip] DVO (DeadSno & den904) + Original Eng

Ответить на тему
 
Автор Сообщение

user ®

Стаж: 7 лет 7 месяцев

Сообщений: 20008

Пост Пост: #1 от 04-Окт-2013 19:10

[Цитировать]

Тёмное прикосновение / Dark touch
Страна: Франция, Ирландия, Швеция
Жанр: триллер, ужас
Год выпуска: 2013
Продолжительность: 01:31:27
Перевод: Любительский (двухголосый закадровый) DeadSno & den904 по субтитрам Antonio
Cубтитры: нет
Оригинальная аудиодорожка: английский
Режиссер: Марина де Ван / Marina de Van
В ролях: Мари Мисси Китинг, Марселла Планкетт, Падрейк Делани, Клер Баррет, Роберт Доннелли, Ричард Дормер, Шарлотта Фливхолм, Элла Хэйес, Марк Хубермэн, Кэти Кирби
Описание: Однажды вечером в доме на окраине начинают происходить невероятно ужасные и таинственные вещи, в ходе чего погибают его обитатели, родители и младший брат 11-летней девочки Ниам. Полиция считает, что это дело рук убийц-вандалов, и не придаёт значения словам Ниам, когда та рассказывает о беспощадной ярости дома.
Девочку забирают к себе друзья её родителей, которые, окружив Ниам любовью и вниманием, стараются облегчить её боль. Но Ниам не оставляют в покое. Она постоянно замечает признаки подкрадывающейся опасности, окружающие её предметы пропитаны жестокой яростью, которая вскоре вновь прорывается и начинает жестокую расправу, в поисках всё новых жертв…

Качество видео: WEB-DLRip
Формат видео: AVI
Сэмпл: http://multi-up.com/909630
Видео: 720x304 (2.37:1), 23.976 fps, XviD MPEG-4 ~1620 kbps avg, 0.31 bit/pixel
Аудио 1: 48 kHz, AC3 Dolby Digital, 2/0 (L,R) ch, ~192 kbps
Аудио 2: 48 kHz, AC3 Dolby Digital, 3/2 (L,C,R,l,r) + LFE ch, ~448 kbps

MediaInfo

General
Complete name : D:\TORRENTS\Dark touch.avi
Format : AVI
Format/Info : Audio Video Interleave
File size : 1.46 GiB
Duration : 1h 31mn
Overall bit rate : 2 278 Kbps
Video
ID : 0
Format : MPEG-4 Visual
Format profile : Advanced Simple@L5
Format settings, BVOP : 2
Format settings, QPel : No
Format settings, GMC : No warppoints
Format settings, Matrix : Default (H.263)
Codec ID : XVID
Codec ID/Hint : XviD
Duration : 1h 31mn
Bit rate : 1 621 Kbps
Width : 720 pixels
Height : 304 pixels
Display aspect ratio : 2.35:1
Frame rate : 23.976 fps
Color space : YUV
Chroma subsampling : 4:2:0
Bit depth : 8 bits
Scan type : Progressive
Compression mode : Lossy
Bits/(Pixel*Frame) : 0.309
Stream size : 1.04 GiB (71%)
Writing library : XviD 62
Audio #1
ID : 1
Format : AC-3
Format/Info : Audio Coding 3
Mode extension : CM (complete main)
Format settings, Endianness : Big
Codec ID : 2000
Duration : 1h 31mn
Bit rate mode : Constant
Bit rate : 192 Kbps
Channel(s) : 2 channels
Channel positions : Front: L R
Sampling rate : 48.0 KHz
Bit depth : 16 bits
Compression mode : Lossy
Stream size : 126 MiB (8%)
Alignment : Aligned on interleaves
Interleave, duration : 32 ms (0.77 video frame)
Audio #2
ID : 2
Format : AC-3
Format/Info : Audio Coding 3
Mode extension : CM (complete main)
Format settings, Endianness : Big
Codec ID : 2000
Duration : 1h 31mn
Bit rate mode : Constant
Bit rate : 448 Kbps
Channel(s) : 6 channels
Channel positions : Front: L C R, Side: L R, LFE
Sampling rate : 48.0 KHz
Bit depth : 16 bits
Compression mode : Lossy
Stream size : 293 MiB (20%)
Alignment : Aligned on interleaves
Interleave, duration : 32 ms (0.77 video frame)

Скриншот c названием фильма

Скриншоты

Скачать

Скачать торрент!

Как скачивать? · Что такое торрент? · Рейтинг и ограничения

Сайт не распространяет и не хранит электронные версии произведений, а лишь предоставляет доступ к создаваемому пользователями каталогу ссылок на торрент-файлы, которые содержат только списки хеш-сумм

[Профиль] [ЛС]
Показать сообщения:    
Ответить на тему

Текущее время: Сегодня 22:27

Часовой пояс: GMT + 4



Вы не можете начинать темы
Вы не можете отвечать на сообщения
Вы не можете редактировать свои сообщения
Вы не можете удалять свои сообщения
Вы не можете голосовать в опросах
Вы не можете прикреплять файлы к сообщениям
Вы не можете скачивать файлы