Война миров Z / World War Z (Марк Форстер / Marc Forster) [2013, США, ужасы, фантастика, боевик, HDRip] [Theatrical Cut] Dub

Ответить на тему
 
Автор Сообщение

user ®

Стаж: 7 лет 7 месяцев

Сообщений: 20008

Пост Пост: #1 от 04-Окт-2013 19:10

[Цитировать]

Война миров Z / World War Z / Theatrical Cut- Страна: США
Жанр: ужасы, фантастика, боевик
Год выпуска: 2013
Продолжительность: 01:56:01
Перевод: Профессиональный (дублированный)
Cубтитры: нет-Режиссер: Марк Форстер / Marc Forster
В ролях: Брэд Питт, Мирей Инос, Джеймс Бэдж Дэйл, Мэттью Фокс, Даниэлла Кертеш, Луди Бокен, Фана Мокоэна, Дэвид Морc, Элайес Габел, Питер Капальди.
Описание: Джерри Лейн — бывший сотрудник ООН, не раз рисковавший жизнью ради страны. Для него всегда семья стояла на первом месте, и после увольнения он все свое время проводит с любимой женой и двумя дочерьми. Однажды на город обрушился странный вирус, превращающий жителей в кровожадных зомби. Чтобы спасти свою семью, Джерри решает бежать из города, но сделать это оказывается совсем не просто. Знания и навыки, полученные им за время службы, помогают им пробраться через инфицированных. Однако, как оказывается позднее, не только их город подвергся заражению, а и весь мир. Укрыв семью в безопасном месте, Джерри возвращается на службу, чтобы выяснить причины заражения и остановить массовую эпидемию...-Автор рипа: Scarabey
Качество видео: HDRip
Формат видео: AVI | Sample
Видео: 688x288 (2.39:1), 23.976 fps, XviD build 73 ~760 kbps avg, 0.16 bit/pixel
Аудио: 48 kHz, MPEG Layer 3, 2 ch, ~128.00 kbps avg

Скриншоты

Медиаинфо

Format : AVI
Format/Info : Audio Video Interleave
File size : 745 MiB
Duration : 1h 56mn
Overall bit rate : 898 Kbps
Writing application : VirtualDubMod 1.5.10.3 (build 2550/release)
Writing library : VirtualDubMod build 2550/release
Video
ID : 0
Format : MPEG-4 Visual
Format profile : Advanced Simple@L5
Format settings, BVOP : Yes
Format settings, QPel : No
Format settings, GMC : No warppoints
Format settings, Matrix : Custom
Codec ID : XVID
Codec ID/Hint : XviD
Duration : 1h 56mn
Bit rate : 760 Kbps
Width : 688 pixels
Height : 288 pixels
Display aspect ratio : 2.35:1
Frame rate : 23.976 fps
Color space : YUV
Chroma subsampling : 4:2:0
Bit depth : 8 bits
Scan type : Progressive
Bits/(Pixel*Frame) : 0.160
Stream size : 631 MiB (85%)
Writing library : XviD 73
Audio
ID : 1
Format : MPEG Audio
Format version : Version 1
Format profile : Layer 3
Codec ID : 55
Codec ID/Hint : MP3
Duration : 1h 56mn
Bit rate mode : Constant
Bit rate : 128 Kbps
Channel(s) : 2 channels
Sampling rate : 48.0 KHz
Stream size : 106 MiB (14%)
Alignment : Aligned on interleaves
Interleave, duration : 42 ms (1.00 video frame)
Interleave, preload duration : 504 ms
Writing library : LAME3.99r
Encoding settings : -m s -V 4 -q 2 -lowpass 17 -b 128
Скачать

Скачать торрент!

Как скачивать? · Что такое торрент? · Рейтинг и ограничения

Сайт не распространяет и не хранит электронные версии произведений, а лишь предоставляет доступ к создаваемому пользователями каталогу ссылок на торрент-файлы, которые содержат только списки хеш-сумм

[Профиль] [ЛС]
Показать сообщения:    
Ответить на тему

Текущее время: Сегодня 05:11

Часовой пояс: GMT + 4



Вы не можете начинать темы
Вы не можете отвечать на сообщения
Вы не можете редактировать свои сообщения
Вы не можете удалять свои сообщения
Вы не можете голосовать в опросах
Вы не можете прикреплять файлы к сообщениям
Вы не можете скачивать файлы