Приди, счастье / Happiness Come On / Shiawase Kamon (Дайсуке Накамура / Daisuke Nakamura) [2012, Япония, Драма, DVDRip] VO D.I.M.

Ответить на тему
 
Автор Сообщение

user ®

Стаж: 11 лет

Сообщений: 15151

Пост Пост: #1 от 04-Окт-2013 16:00

[Цитировать]

Приди, счастье / Happiness Come On / Shiawase Kamon
Страна: Япония
Жанр: Драма
Год выпуска: 2012
Продолжительность: 1:57:56
Перевод: Одноголосый закадровый D.I.M.
Cубтитры: нет
Режиссер: Дайсуке Накамура / Daisuke Nakamura
В ролях: Юма Ишигаки / Yuma Ishigaki
Сава Судзуки / Sawa Suzuki
Кадзуюки Асано / Kazuyuki Asano
Юки Кадзамуцури / Yuki Kazamatsuri
Киёми / Kiyomi
Тэцуя Мацумото / Tetsuya Matsumoto
Горо Оиси / Goro Oishi
Описание: В 2004 году певец Тэцуя Мацумото написал автобиографию,
в которой также описывались его непростые отношения
со своей матерью. Режиссёр взяв за основу автобиографические
материалы создал по ним фильм, который охватывает брак матери Тэцуи
с отцом-якудзой, наркоманию матери, пребывание Тэцуи в детском доме
и его примирение со своей матерью, когда он стал уже взрослым.
Это шестьдесят девятый фильм с моим переводом и озвучкой, выложенный здесь.
Сэмпл: http://multi-up.com/909564
Качество видео: DVDRip
Формат видео: AVI
Видео: 720*400 (16:9), 23,976 fps, MPEG-4 Visual (XviD) ~ 1524 kbps avg, 0.221 bit/pixel
Аудио: MPEG Audio Layer 3, 48000Hz, stereo, 128kbps

MediaInfo

Общее
Полное имя : D:\TORENT\РАЗДАЧИ (РИПЫ)\HAPPINESS COME ON.avi
Формат : AVI
Формат/Информация : Audio Video Interleave
Размер файла : 1,37 Гбайт
Продолжительность : 1 ч. 57 м.
Общий поток : 1661 Кбит/сек
Программа кодирования : VirtualDubModRus 1.5.10.2 (build 2542/release)
Библиотека кодирования : VirtualDubMod build 2542/release
Видео
Идентификатор : 0
Формат : MPEG-4 Visual
Профиль формата : Advanced Simple@L5
Параметр BVOP формата : Нет
Параметр QPel формата : Нет
Параметр GMC формата : Без точки перехода
Параметр матрицы формата : Выборочная
Идентификатор кодека : XVID
Идентификатор кодека/Подсказка : XviD
Продолжительность : 1 ч. 57 м.
Битрейт : 1524 Кбит/сек
Ширина : 720 пикс.
Высота : 400 пикс.
Соотношение сторон : 16:9
Частота кадров : 23,976 кадр/сек
Цветовое пространство : YUV
Подвыборка цветности : 4:2:0
Битовая глубина : 8 бит
Тип развёртки : Прогрессивная
Метод сжатия : С потерями
Бит/(Пиксели*Кадры) : 0.221
Размер потока : 1,26 Гбайт (92%)
Библиотека кодирования : XviD 63
Аудио
Идентификатор : 1
Формат : MPEG Audio
Версия формата : Version 1
Профиль формата : Layer 3
Режим : Joint stereo
Идентификатор кодека : 55
Идентификатор кодека/Подсказка : MP3
Продолжительность : 1 ч. 57 м.
Вид битрейта : Постоянный
Битрейт : 128 Кбит/сек
Канал(ы) : 2 канала(ов)
Частота : 48,0 КГц
Метод сжатия : С потерями
Размер потока : 108 Мбайт (8%)
Выравнивание : Соединение по промежуткам
Продолжительность промежутка : 42 мс. (1,00 видеокадр)
Время предзагрузки промежутка : 504 ms
Язык : Japanese

Скриншот c названием фильма

Скриншоты

Скачать

Скачать торрент! Приди, счастье / Happiness Come On / Shiawase Kamon (Дайсуке Накамура / Daisuke Nakamura) [2012, Япония, Драма, DVDRip] VO D.I.M.

Как скачивать? · Что такое торрент? · Рейтинг и ограничения

Сайт не распространяет и не хранит электронные версии произведений, а лишь предоставляет доступ к создаваемому пользователями каталогу ссылок на торрент-файлы, которые содержат только списки хеш-сумм

[Профиль] [ЛС]
Показать сообщения:    
Ответить на тему

Текущее время: Сегодня 11:30

Часовой пояс: GMT + 4



Вы не можете начинать темы
Вы не можете отвечать на сообщения
Вы не можете редактировать свои сообщения
Вы не можете удалять свои сообщения
Вы не можете голосовать в опросах
Вы не можете прикреплять файлы к сообщениям
Вы не можете скачивать файлы