Глаза змеи / Snake Eyes (Брайан Де Пальма / Brian De Palma) [1998, США, Канада, триллер, криминал, детектив, BDRip 720p] Dub + MVO + AVO (Ю. Живов) + Ukr + 3xSub (Rus, Eng, Ukr) + Original Eng

Ответить на тему
 
Автор Сообщение

user ®

Стаж: 7 лет 7 месяцев

Сообщений: 20008

Пост Пост: #1 от 04-Окт-2013 01:35

[Цитировать]

Глаза змеи / Snake Eyes
«Пристально следят за своей жертвой»
- Страна: США, Канада
Студия: DeBart, Paramount Pictures, Touchstone Pictures
Жанр: триллер, криминал, детектив
Год выпуска: 1998
Продолжительность: 01:38:17
Перевод 1: Профессиональный (дублированный) (Видеосервис)
Перевод 2: Профессиональный (многоголосый закадровый) (ОРТ)
Перевод 3: Авторский (одноголосый закадровый) (Ю.Живов)
Перевод 4: Украинский, профессиональный (многоголосый закадровый) (Новый канал)
Cубтитры: русские, английские, украинские (форсированные)
Оригинальная аудиодорожка: английская
Режиссер: Брайан Де Пальма / Brian De Palma
В ролях: Николас Кейдж (Rick Santoro, Станислав Концевич), Гэри Синиз (Commander Kevin Dunne, Анатолий Петров), Джон Хёрд (Gilbert Powell), Карла Гуджино (Julia Costello, Евгения Игумнова), Стэн Шоу (Lincoln Tyler, Сергей Паршин), Кевин Данн (Lou Logan), Майкл Рисполи (Jimmy George, Валерий Захарьев), Джоэл Фабиани (Charles Kirkland, Николай Буров), Луис Гусман (Cyrus, Алексей Гурьев), Дэвид Энтони Хиггинс (Ned Campbell, Александр Баргман), Майк Старр (Walt McGahn, Николай Лавров), Тамара Тюни (Anthea), Чип Цин (Mickey Alter, Олег Куликович), Мишель Бэйсси (Tyler's Party Girl #2), Пол Джозеф Бернардо (Casino Security #1), Джернард Буркс (Tyler's Bodyguard), Марк Камачо (C.J., Алексей Гурьев), Десмонд Кэмпбелл (Arena Security), Жан-Поль Чартрэнд (Ring Announcer), Чип Чуипка (Zietz, (Drunk), Александр Завьялов (Drunk)), Диано Клаве (Arena Security), Тара Энн Калп (Lady at Elevator), Келли Дэдмон (Blonde Reporter), Фредерик Де Гранпре (College Boy #1), Адам С. Флорес (Jose Pacifico Ruiz), Джордж Форниотис (Blue Shirt #3), Кристина Фалтон (Roundgirl), Кеннет Глегг (Referee), Себастьен Делорм (College Boy #4), Ален Голем (PPV Director), Дин Хагопиан (Latecomer), Джейн Хейтмейер (Serena), Эрик Хозиел (Rabat, (Assassin)), Байрон Джонсон (College Boy #2), Гай Келада (Blue Shirt), Сильвен Ландри (Remote Producer), Кэри Лоуренс (Powell's Aide), Роберт Норман (FBI Agent), Ричард Лемир (Agent #2), Кристофер Б. МакКейб (Couple #2), Сильвен Массе (Cop #1), Уильям Дж. МакКеон III (Anthea's Cameraman), Патрик МакДэйд (Lawyer), Питер МакРобби (Gordon Pritzker), Кристиан Наполи (Michael Santoro), Лэнс Э. Николс (Cop #3), Джейсон Нуццо (Coin Cup Grabber), Патрик Парент (Detective), Питер Патрикиос (Coin Cup Decoy), Жасинта Рене (Couple #1), Стефан Сприкмейстер (College Boy #3), Ева Теп (Tyler's Party Girl #1), Джон Тадеус (Cop #2, Михаил Пореченков), Джим Вилан (Mayor), Брайан Энтони Уилсон (Casino Security #2), Ричард Земан (Agent #1), Герард Макс Десилус (Tyler's Party Crash Guy), Энтони Кансельери (Casino Security #4), Том Детрик (Spectator), Майкл Гриффит (Body Guard #1), Гай Летурно (Police Officer), Алекс Нобльз, Мелисса Палаццо (Prostitute), Марк Прискетт (Photographer), Эндрю Семпл (Ringside Photographer), Кевин Крэйг Уэст (Casino Security)
Описание: Начиная с первых сенсационных выстрелов и заканчивая неожиданным финалом, фильм полон загадок и тревожного ожидания. Кейдж играет роль Рика Санторо, эксцентричного детектива полиции Атлантик-Сити, который приходит посмотреть на своего спортивного кумира и заодно поправить свои финансовые дела на тотализаторе.
Внезапная стрельба во время поединка превращает 14 тысяч болельщиков в свидетелей политического убийства. Показания свидетелей, видеозаписи электронной системы наблюдения за казино и информация, полученная от таинственной незнакомки в белом, — все это вместе рисует перед видавшим виды Санторо настолько невероятную картину убийства, что он просто отказывается в нее верить.

Тип релиза: BDRip 720p [DON]
Контейнер: MKV
Видео: 1280x534 (2,40:1), 23,976 fps, x264 ~5758 kbps avg, 0.351 bit/pixel
Аудио 1: 48 kHz, AC3 Dolby Digital, 3/2 (L,C,R,l,r) + LFE ch, 448 kbps (русская, Dub)
Аудио 2: 48 kHz, AC3 Dolby Digital, 2 ch, 192 kbps (русская, MVO)
Аудио 3: 48 kHz, AC3 Dolby Digital, 3/2 (L,C,R,l,r) + LFE ch, 448 kbps (русская, AVO)
Аудио 4: 48 kHz, AC3 Dolby Digital, 3/2 (L,C,R,l,r) + LFE ch, 384 kbps (украинская, MVO)
Аудио 5: 48 kHz, AC3 Dolby Digital, 3/2 (L,C,R,l,r) + LFE ch, 640 kbps (английская)
Формат субтитров: softsub (SRT)

возраст: зрителям, достигшим 16 лет
рейтинг MPAA: лицам до 17 лет обязательно присутствие взрослого

MediaInfo

ОбщееУникальный идентификатор : 226693430490881894311022969646804853905 (0xAA8B910C8E1AE2F38EF6980A14A76491)Полное имя : \Snake.Eyes.1998.720p.BluRay.DD5.1.x264.mkvФормат : MatroskaВерсия формата : Version 2Размер файла : 5,51 ГбайтПродолжительность : 1 ч. 38 м.Общий поток : 8029 Кбит/секДата кодирования : UTC 2013-09-28 17:17:11Программа кодирования : mkvmerge v4.5.0 ('Speed of Light') сборка от Feb 1 2011 02:10:32Библиотека кодирования : libebml v1.2.0 + libmatroska v1.1.0
ВидеоИдентификатор : 1Формат : AVCФормат/Информация : Advanced Video CodecПрофиль формата : High@L4.1Параметр CABAC формата : ДаПараметр ReFrames формата : 11 кадровИдентификатор кодека : V_MPEG4/ISO/AVCПродолжительность : 1 ч. 38 м.Битрейт : 5758 Кбит/секШирина : 1280 пикселейВысота : 534 пикселяСоотношение сторон : 2,40:1Режим частоты кадров : ПостоянныйЧастота кадров : 23,976 кадра/секЦветовое пространство : YUVСубдискретизация насыщенности : 4:2:0Битовая глубина : 8 битТип развёртки : ПрогрессивнаяБит/(Пиксели*Кадры) : 0.351Размер потока : 3,95 Гбайт (72%)Заголовок : Snake.Eyes.1998.720p.BluRay.DD5.1.x264-DONБиблиотека кодирования : x264 core 116 r2057 0ba8a9cНастройки программы : cabac=1 / ref=11 / deblock=1:-3:-3 / analyse=0x3:0x133 / me=umh / subme=10 / psy=1psy_rd=1.00:0.00 / mixed_ref=1 / me_range=32 / chroma_me=1 / trellis=2 / 8x8dct=1 / cqm=0 / deadzone=21,11 / fast_pskip=0chroma_qp_offset=-2 / threads=18 / sliced_threads=0 / nr=0 / decimate=0 / interlaced=0 / bluray_compat=0 / constrained_intra=0bframes=7 / b_pyramid=2 / b_adapt=2 / b_bias=0 / direct=3 / weightb=1 / open_gop=0 / weightp=2 / keyint=250 / keyint_min=23scenecut=40 / intra_refresh=0 / rc_lookahead=40 / rc=crf / mbtree=0 / crf=17.0 / qcomp=0.65 / qpmin=0 / qpmax=40 / qpstep=4vbv_maxrate=50000 / vbv_bufsize=50000 / crf_max=0.0 / nal_hrd=none / ip_ratio=1.25 / pb_ratio=1.25 / aq=1:0.60Язык : EnglishDefault : ДаForced : Нет
Аудио #1Идентификатор : 2Формат : AC-3Формат/Информация : Audio Coding 3Расширение режима : CM (complete main)Параметр Endianness формата : BigИдентификатор кодека : A_AC3Продолжительность : 1 ч. 38 м.Вид битрейта : ПостоянныйБитрейт : 448 Кбит/секКаналы : 6 каналовРасположение каналов : Front: L C R, Side: L R, LFEЧастота : 48,0 КГцБитовая глубина : 16 битМетод сжатия : С потерямиРазмер потока : 315 Мбайт (6%)Заголовок : Dub ac3 5.1 448 kbpsЯзык : RussianDefault : ДаForced : Нет
Аудио #2Идентификатор : 3Формат : AC-3Формат/Информация : Audio Coding 3Расширение режима : CM (complete main)Параметр Endianness формата : BigИдентификатор кодека : A_AC3Продолжительность : 1 ч. 38 м.Вид битрейта : ПостоянныйБитрейт : 192 Кбит/секКаналы : 2 каналаРасположение каналов : Front: L RЧастота : 48,0 КГцБитовая глубина : 16 битМетод сжатия : С потерямиРазмер потока : 135 Мбайт (2%)Заголовок : MVO ac3 2.0 192 kbpsЯзык : RussianDefault : НетForced : Нет
Аудио #3Идентификатор : 4Формат : AC-3Формат/Информация : Audio Coding 3Расширение режима : CM (complete main)Параметр Endianness формата : BigИдентификатор кодека : A_AC3Продолжительность : 1 ч. 38 м.Вид битрейта : ПостоянныйБитрейт : 448 Кбит/секКаналы : 6 каналовРасположение каналов : Front: L C R, Side: L R, LFEЧастота : 48,0 КГцБитовая глубина : 16 битМетод сжатия : С потерямиРазмер потока : 315 Мбайт (6%)Заголовок : AVO ac3 5.1 448 kbpsЯзык : RussianDefault : НетForced : Нет
Аудио #4Идентификатор : 5Формат : AC-3Формат/Информация : Audio Coding 3Расширение режима : CM (complete main)Параметр Endianness формата : BigИдентификатор кодека : A_AC3Продолжительность : 1 ч. 38 м.Вид битрейта : ПостоянныйБитрейт : 384 Кбит/секКаналы : 6 каналовРасположение каналов : Front: L C R, Side: L R, LFEЧастота : 48,0 КГцБитовая глубина : 16 битМетод сжатия : С потерямиРазмер потока : 270 Мбайт (5%)Заголовок : MVO ac3 5.1 384 kbpsЯзык : UkrainianDefault : НетForced : Нет
Аудио #5Идентификатор : 6Формат : AC-3Формат/Информация : Audio Coding 3Расширение режима : CM (complete main)Параметр Endianness формата : BigИдентификатор кодека : A_AC3Продолжительность : 1 ч. 38 м.Вид битрейта : ПостоянныйБитрейт : 640 Кбит/секКаналы : 6 каналовРасположение каналов : Front: L C R, Side: L R, LFEЧастота : 48,0 КГцБитовая глубина : 16 битМетод сжатия : С потерямиРазмер потока : 450 Мбайт (8%)Заголовок : Original ac3 5.1 640 kbpsЯзык : EnglishDefault : НетForced : Нет
Текст #1Идентификатор : 7Формат : UTF-8Идентификатор кодека : S_TEXT/UTF8Идентификатор кодека/Информация : UTF-8 Plain TextЗаголовок : Sub-fullЯзык : RussianDefault : НетForced : Нет
Текст #2Идентификатор : 8Формат : UTF-8Идентификатор кодека : S_TEXT/UTF8Идентификатор кодека/Информация : UTF-8 Plain TextЗаголовок : Sub-fullЯзык : EnglishDefault : НетForced : Нет
Текст #3Идентификатор : 9Формат : UTF-8Идентификатор кодека : S_TEXT/UTF8Идентификатор кодека/Информация : UTF-8 Plain TextЗаголовок : ForcedЯзык : UkrainianDefault : НетForced : Нет

Видеоряд от DON

Snake Eyes 1998 720p Bluray DD5.1 x264-DON
INFO
RUNTIME...........: 1h:38m:00sRELEASE SIZE......: 4,50 GBVIDEO CODEC.......: x264, crf16.5, L4.1VIDEO BITRATE.....: ~5900 KbpsRESOLUTION........: 1280 X 534FRAMERATE.........: 23.976 fpsAUDIO.............: English AC-3 @ 640 kbpsSUBS..............: English.CHAPTERS..........: Yes.SOURCE............: Snake Eyes 1998 1080p Blu-ray AVC DTS-HD MA 5.1-DONENCODER...........: raphaexRELEASE DATE......: 24/09/2013-x264 INFO:
x264 [info]: profile High, level 4.1x264 [info]: frame I:846 Avg QP:16.83 size: 85361x264 [info]: frame P:28207 Avg QP:17.72 size: 53188x264 [info]: frame B:112345 Avg QP:19.60 size: 24811x264 [info]: consecutive B-frames: 1.1% 1.2% 3.9% 18.6% 21.4% 42.0% 7.7% 4.1%encoded 141398 frames, 8.99 fps, 5914.28 kb/s

Скриншоты


Скачать

Скачать торрент!

Как скачивать? · Что такое торрент? · Рейтинг и ограничения

Сайт не распространяет и не хранит электронные версии произведений, а лишь предоставляет доступ к создаваемому пользователями каталогу ссылок на торрент-файлы, которые содержат только списки хеш-сумм

[Профиль] [ЛС]
Показать сообщения:    
Ответить на тему

Текущее время: Сегодня 07:59

Часовой пояс: GMT + 4



Вы не можете начинать темы
Вы не можете отвечать на сообщения
Вы не можете редактировать свои сообщения
Вы не можете удалять свои сообщения
Вы не можете голосовать в опросах
Вы не можете прикреплять файлы к сообщениям
Вы не можете скачивать файлы