Под подозрением / Under Suspicion (Саймон Мур / Simon Moore) [1991, США, Великобритания, триллер, драма, криминал, BDRip 1080p] 2x DVO (НТВ, Карусель) + AVO (Гаврилов) + Original + subs (Rus, Eng)

Ответить на тему
 
Автор Сообщение

user ®

Стаж: 7 лет 7 месяцев

Сообщений: 20008

Пост Пост: #1 от 04-Окт-2013 01:35

[Цитировать]

Под подозрением / Under Suspicion- Год выпуска: 1991
Страна: США, Великобритания
Жанр: триллер, драма, криминал
Продолжительность: 01:39:58
Перевод 1: Профессиональный (двухголосый, закадровый) НТВ
Перевод 2: Профессиональный (двухголосый, закадровый) Карусель
Перевод 3: Авторский одноголосый А.Гаврилов
Оригинальная звуковая дорожка: English
Cубтитры: Russian, English-Режиссер: Саймон Мур / Simon Moore
В ролях: Лиам Нисон, Лора Сан Джакомо, Кеннет Крэнэм, Мэгги О’Нил, Алан Тэлбот, Малкольм Сторри, Мартин Грэйс, Кевин Мур, Стефен Оксли, Колин Дадли
О фильме: Частный детектив «устраивает» разводы. Он добивается супружеской неверности, а роль любовницы, «подкидываемой» в постель к клиентам играет его жена Хейзел. Однажды, в канун Рождества, Тони врывается в гостиничный номер и нажимает на затвор фотоаппарата. В его объектив попадают сразу два трупа: Хейзел и клиента. На наследство убитого, знаменитого художника, претендуют его вдова и бывшая любовница. А Тони оказывается главным подозреваемым в убийстве...-DON!
Релиз: by madoff
Формат: MKV
Видео: AVC, 1920x800 (2.40:1), 23.976 fps, 15.5 Mbps (0.421 bit/pixel)
Аудио #1: Russian: 48 kHz, DTS, 2/0 (L,R), ~510.00 kbps avg |Двухголосый закадровый, Карусель|
Аудио #2: Russian: 48 kHz, AC3, 2/0 (L,R), ~192.00 kbps avg |Одноголосый закадровый, А.Гаврилов|
Аудио #3: Russian: 48 kHz, AC3, 2/0 (L,R), ~192.00 kbps avg |Двухголосый закадровый, НТВ|
Аудио #4: English: 48 kHz, DTS, 2/0 (L,R), ~510.00 kbps avg
Семпл-

Source~Encode





-

mInfo


Формат : Matroska
Версия формата : Version 4 / Version 2
Размер файла : 11,8 Гбайт
Продолжительность : 1 ч. 39 м.
Общий поток : 16,9 Мбит/сек
Дата кодирования : UTC 2013-10-03 18:34:31
Программа кодирования : mkvmerge v6.1.0 ('Old Devil') built on Mar 2 2013 14:32:37
Библиотека кодирования : libebml v1.3.0 + libmatroska v1.4.0
Видео
Идентификатор : 1
Формат : AVC
Формат/Информация : Advanced Video Codec
Профиль формата : High@L4.1
Параметр CABAC формата : Да
Параметр ReFrames формата : 5 кадров
Идентификатор кодека : V_MPEG4/ISO/AVC
Продолжительность : 1 ч. 39 м.
Битрейт : 15,5 Мбит/сек
Ширина : 1920 пикселей
Высота : 800 пикселей
Соотношение сторон : 2,40:1
Режим частоты кадров : Постоянный
Частота кадров : 23,976 кадра/сек
Цветовое пространство : YUV
Субдискретизация насыщенности : 4:2:0
Битовая глубина : 8 бит
Тип развёртки : Прогрессивная
Бит/(Пиксели*Кадры) : 0.421
Размер потока : 10,6 Гбайт (90%)
Библиотека кодирования : x264 core 130 r2273 b3065e6
Настройки программы : cabac=1 / ref=5 / deblock=1:-3:-3 / analyse=0x3:0x133 / me=tesa / subme=10 / psy=1 / psy_rd=0.95:0.00 / mixed_ref=1 / me_range=24 / chroma_me=1 / trellis=2 / 8x8dct=1 / cqm=0 / deadzone=21,11 / fast_pskip=0 / chroma_qp_offset=-2 / threads=12 / lookahead_threads=2 / sliced_threads=0 / nr=0 / decimate=0 / interlaced=0 / bluray_compat=0 / constrained_intra=0 / bframes=8 / b_pyramid=2 / b_adapt=2 / b_bias=0 / direct=3 / weightb=1 / open_gop=0 / weightp=2 / keyint=250 / keyint_min=23 / scenecut=40 / intra_refresh=0 / rc_lookahead=60 / rc=2pass / mbtree=0 / bitrate=15500 / ratetol=1.0 / qcomp=0.75 / qpmin=0 / qpmax=69 / qpstep=4 / cplxblur=20.0 / qblur=0.5 / vbv_maxrate=50000 / vbv_bufsize=62500 / nal_hrd=none / ip_ratio=1.40 / pb_ratio=1.30 / aq=1:0.70
Язык : English
Default : Да
Forced : Нет
Аудио #1
Идентификатор : 2
Формат : DTS
Формат/Информация : Digital Theater Systems
Режим : 16
Параметр Endianness формата : Big
Идентификатор кодека : A_DTS
Продолжительность : 1 ч. 39 м.
Вид битрейта : Постоянный
Битрейт : 510 Кбит/сек
Каналы : 2 канала
Расположение каналов : Front: L R
Частота : 48,0 КГц
Битовая глубина : 16 бит
Метод сжатия : С потерями
Размер потока : 365 Мбайт (3%)
Заголовок : Профессиональный двухголосый - [Карусель]
Язык : Russian
Default : Да
Forced : Нет
Аудио #2
Идентификатор : 3
Формат : AC-3
Формат/Информация : Audio Coding 3
Расширение режима : CM (complete main)
Параметр Endianness формата : Big
Идентификатор кодека : A_AC3
Продолжительность : 1 ч. 39 м.
Вид битрейта : Постоянный
Битрейт : 192 Кбит/сек
Каналы : 2 канала
Расположение каналов : Front: L R
Частота : 48,0 КГц
Битовая глубина : 16 бит
Метод сжатия : С потерями
Размер потока : 137 Мбайт (1%)
Заголовок : Авторский одноголосый - [Андрей Гаврилов]
Язык : Russian
Default : Нет
Forced : Нет
Аудио #3
Идентификатор : 4
Формат : AC-3
Формат/Информация : Audio Coding 3
Расширение режима : CM (complete main)
Параметр Endianness формата : Big
Идентификатор кодека : A_AC3
Продолжительность : 1 ч. 39 м.
Вид битрейта : Постоянный
Битрейт : 192 Кбит/сек
Каналы : 2 канала
Расположение каналов : Front: L R
Частота : 48,0 КГц
Битовая глубина : 16 бит
Метод сжатия : С потерями
Размер потока : 137 Мбайт (1%)
Заголовок : Профессиональный двухголосый - [НТВ]
Язык : Russian
Default : Нет
Forced : Нет
Аудио #4
Идентификатор : 5
Формат : DTS
Формат/Информация : Digital Theater Systems
Режим : 16
Параметр Endianness формата : Big
Идентификатор кодека : A_DTS
Продолжительность : 1 ч. 39 м.
Вид битрейта : Постоянный
Битрейт : 510 Кбит/сек
Каналы : 2 канала
Расположение каналов : Front: L R
Частота : 48,0 КГц
Битовая глубина : 16 бит
Метод сжатия : С потерями
Размер потока : 365 Мбайт (3%)
Заголовок : Original
Язык : English
Default : Нет
Forced : Нет
Текст #1
Идентификатор : 6
Формат : UTF-8
Идентификатор кодека : S_TEXT/UTF8
Идентификатор кодека/Информация : UTF-8 Plain Text
Язык : Russian
Default : Нет
Forced : Нет
Текст #2
Идентификатор : 7
Формат : UTF-8
Идентификатор кодека : S_TEXT/UTF8
Идентификатор кодека/Информация : UTF-8 Plain Text
Язык : English
Default : Нет
Forced : Нет
Текст #3
Идентификатор : 8
Формат : UTF-8
Идентификатор кодека : S_TEXT/UTF8
Идентификатор кодека/Информация : UTF-8 Plain Text
Язык : Czech
Default : Нет
Forced : Нет
Меню
00:00:00.000 : en:00:00:00.000
00:07:57.352 : en:00:07:57.352
00:14:41.005 : en:00:14:41.005
00:18:35.614 : en:00:18:35.614
00:24:16.705 : en:00:24:16.705
00:29:46.535 : en:00:29:46.535
00:36:22.597 : en:00:36:22.597
00:41:43.376 : en:00:41:43.376
00:49:00.646 : en:00:49:00.646
00:54:00.237 : en:00:54:00.237
01:00:42.472 : en:01:00:42.472
01:05:15.120 : en:01:05:15.120
01:09:03.222 : en:01:09:03.222
01:16:02.725 : en:01:16:02.725
01:21:32.346 : en:01:21:32.346
01:26:39.152 : en:01:26:39.152
-
Скачать

Скачать торрент!

Как скачивать? · Что такое торрент? · Рейтинг и ограничения

Сайт не распространяет и не хранит электронные версии произведений, а лишь предоставляет доступ к создаваемому пользователями каталогу ссылок на торрент-файлы, которые содержат только списки хеш-сумм

[Профиль] [ЛС]
Показать сообщения:    
Ответить на тему

Текущее время: Сегодня 11:57

Часовой пояс: GMT + 4



Вы не можете начинать темы
Вы не можете отвечать на сообщения
Вы не можете редактировать свои сообщения
Вы не можете удалять свои сообщения
Вы не можете голосовать в опросах
Вы не можете прикреплять файлы к сообщениям
Вы не можете скачивать файлы