Пленницы / Prisoners (Дени Вильнёв / Denis Villeneuve) [2013, США, триллер, драма, криминал, TeleSynch] Dub + Eng

Ответить на тему
 
Автор Сообщение

user ®

Стаж: 7 лет 7 месяцев

Сообщений: 20008

Пост Пост: #1 от 04-Окт-2013 01:35

[Цитировать]

Пленницы / Prisoners
Страна: США
Жанр: триллер, драма, криминал
Год выпуска: 2013
Продолжительность: 02:25:47
Перевод: Профессиональный (дублированный)
Cубтитры: нет
Английская дорожка: есть
Режиссер: Дени Вильнёв / Denis Villeneuve
В ролях: Хью Джекман, Джейк Джилленхол, Виола Дэвис, Мария Белло, Терренс Ховард, Мелисса Лео, Пол Дано, Дилан Миннетт, Зои Борд, Эрин Герасимович, Кайла Дрю Симмонс, Уэйн Дювалл, Лен Кариу, Давид Дастмалчян, Брэд Джеймс, Энтони Рейнольдс, Роберт С. Тревилер, Сандра Эллис Лэфферти
Описание: Похищена шестилетняя девочка и ее подруга. Отец одной из них отчаивается найти дочку с помощью полиции и вершит правосудие сам: берет в заложники человека, подозреваемого в похищении девочек. Теперь именно его ищет вся местная полиция и детектив Локи.
http://multi-up.com/909373
Качество видео: TeleSynch
Формат видео: Matroska
Видео: AVC at 1685 Кбит/сек, 720 x 400 (1.803) at 29.970 fps
Аудио: MPEG Audio at 128 Кбит/сек, 2 канала, 44,1 КГц (ru)
Аудио: MPEG Audio at 224 Кбит/сек, 2 канала, 48,0 КГц (en)

MediaInfo

Формат : Matroska
Версия формата : Version 4 / Version 2
Размер файла : 2,07 Гбайт
Продолжительность : 2 ч. 25 м.
Общий поток : 2036 Кбит/сек
Название фильма : Prisoners (2013) TS
Дата кодирования : UTC 2013-10-03 15:57:34
Программа кодирования : mkvmerge v6.3.0 ('You can't stop me!') built on Jun 28 2013 20:09:41
Библиотека кодирования : libebml v1.3.0 + libmatroska v1.4.0
Видео
Идентификатор : 1
Формат : AVC
Формат/Информация : Advanced Video Codec
Профиль формата : High@L5.2
Параметр CABAC формата : Да
Параметр ReFrames формата : 7 кадров
Идентификатор кодека : V_MPEG4/ISO/AVC
Продолжительность : 2 ч. 25 м.
Битрейт : 1685 Кбит/сек
Ширина : 720 пикселей
Высота : 400 пикселей
Соотношение сторон : 16:9
Соотношение сторон в оригинале : 16:9
Режим частоты кадров : Постоянный
Частота кадров : 29,970 кадров/сек
Цветовое пространство : YUV
Субдискретизация насыщенности : 4:2:0
Битовая глубина : 8 бит
Тип развёртки : Прогрессивная
Бит/(Пиксели*Кадры) : 0.195
Размер потока : 1,67 Гбайт (81%)
Заголовок : Prisoners (2013) TS-AVC
Библиотека кодирования : x264 core 138 r2345
Настройки программы : cabac=1 / ref=7 / deblock=1:-1:-1 / analyse=0x3:0x133 / me=dia / subme=7 / psy=1 / psy_rd=1.00:0.15 / mixed_ref=0 / me_range=16 / chroma_me=0 / trellis=0 / 8x8dct=1 / cqm=0 / deadzone=21,11 / fast_pskip=1 / chroma_qp_offset=-2 / threads=3 / lookahead_threads=1 / sliced_threads=0 / nr=0 / decimate=1 / interlaced=0 / bluray_compat=0 / constrained_intra=0 / bframes=3 / b_pyramid=0 / b_adapt=1 / b_bias=0 / direct=0 / weightb=1 / open_gop=0 / weightp=0 / keyint=290 / keyint_min=29 / scenecut=40 / intra_refresh=0 / rc_lookahead=45 / rc=abr / mbtree=0 / bitrate=1685 / ratetol=1.0 / qcomp=0.60 / qpmin=10 / qpmax=69 / qpstep=4 / vbv_maxrate=24000 / vbv_bufsize=24000 / nal_hrd=none / ip_ratio=1.40 / pb_ratio=1.30 / aq=1:1.00
Default : Да
Forced : Нет
Аудио #1
Идентификатор : 2
Формат : MPEG Audio
Версия формата : Version 1
Профиль формата : Layer 3
Идентификатор кодека : A_MPEG/L3
Идентификатор кодека/Подсказка : MP3
Продолжительность : 2 ч. 25 м.
Вид битрейта : Постоянный
Битрейт : 128 Кбит/сек
Каналы : 2 канала
Частота : 44,1 КГц
Метод сжатия : С потерями
Размер потока : 133 Мбайт (6%)
Библиотека кодирования : LAME3.99.5
Язык : Russian
Default : Нет
Forced : Нет
Аудио #2
Идентификатор : 3
Формат : MPEG Audio
Версия формата : Version 1
Профиль формата : Layer 3
Идентификатор кодека : A_MPEG/L3
Идентификатор кодека/Подсказка : MP3
Продолжительность : 2 ч. 25 м.
Вид битрейта : Постоянный
Битрейт : 224 Кбит/сек
Каналы : 2 канала
Частота : 48,0 КГц
Метод сжатия : С потерями
Размер потока : 234 Мбайт (11%)
Язык : English
Default : Да
Forced : Нет

Скриншоты

Скачать

Скачать торрент!

Как скачивать? · Что такое торрент? · Рейтинг и ограничения

Сайт не распространяет и не хранит электронные версии произведений, а лишь предоставляет доступ к создаваемому пользователями каталогу ссылок на торрент-файлы, которые содержат только списки хеш-сумм

[Профиль] [ЛС]
Показать сообщения:    
Ответить на тему

Текущее время: Сегодня 12:07

Часовой пояс: GMT + 4



Вы не можете начинать темы
Вы не можете отвечать на сообщения
Вы не можете редактировать свои сообщения
Вы не можете удалять свои сообщения
Вы не можете голосовать в опросах
Вы не можете прикреплять файлы к сообщениям
Вы не можете скачивать файлы