Восток / The East (Зал Батманглидж / Zal Batmanglij) [2013, США, Великобритания, драма, криминал, BDRip] MVO

Ответить на тему
 
Автор Сообщение

user ®

Стаж: 7 лет 7 месяцев

Сообщений: 20008

Пост Пост: #1 от 04-Окт-2013 01:35

[Цитировать]

ВостокThe East Год выпуска: 2013
Страна: США, Великобритания
Жанр: драма, криминал
Продолжительность: 01:56:07
Перевод: профессиональный многоголосый закадровый iTunes Russia
Cубтитры: нет-Режиссёр: Зал Батманглидж / Zal Batmanglij-В ролях:
Брит Марлинг, Александр Скарсгард, Эллен Пейдж, Тоби Кеббелл, Шайло Фернандес, Элдис Ходж, Даниэль МакДональд, Хиллари Бак, Патришия Кларксон, Джейсон Риттер, Джулия Ормонд, Билли Магнуссен, Вилбур Фицджералд, Джон Нейслер, Джейми Шеридан, Памела Ройленс, Ава Богл, Ник Фурманн, Патриция Френч, Рон Флагг, Ан Нуу Нгуйен, Билли Слотер-Описание:
«Восток» — название группировки экологических террористов, пытающейся отомстить аморальным корпорациям. Представительница спецслужб должна проникнуть в группировку.--IMDB: 6.9/10 (12 641 votes)
Кинопоиск: 7.042 (823)--Сэмпл--Качество видео: BDRip исходник BDRemux 1080p/HDClub
Формат: AVI
Видео кодек: XviD
Аудио кодек: AC3
Видео: 720x304 (2.37:1), 23.976 fps, XviD, ~1405 kbps avg, 0.27 bit/pixel
Аудио: 48 kHz, AC3 Dolby Digital, 3/2 (L,C,R,l,r) + LFE ch, ~384 kbps

MI

General
Complete name : D:\Vostok.2013.BDRip.avi
Format : AVI
Format/Info : Audio Video Interleave
File size : 1.46 GiB
Duration : 1h 56mn
Overall bit rate : 1 798 Kbps
Writing application : VirtualDubMod 1.5.10.3 (build 2550/release)
Writing library : VirtualDubMod build 2550/release
Video
ID : 0
Format : MPEG-4 Visual
Format profile : Advanced Simple@L5
Format settings, BVOP : 1
Format settings, QPel : No
Format settings, GMC : No warppoints
Format settings, Matrix : Custom
Codec ID : XVID
Codec ID/Hint : XviD
Duration : 1h 56mn
Bit rate : 1 405 Kbps
Width : 720 pixels
Height : 304 pixels
Display aspect ratio : 2.35:1
Frame rate : 23.976 fps
Color space : YUV
Chroma subsampling : 4:2:0
Bit depth : 8 bits
Scan type : Progressive
Compression mode : Lossy
Bits/(Pixel*Frame) : 0.268
Stream size : 1.14 GiB (78%)
Writing library : XviD 64
Audio
ID : 1
Format : AC-3
Format/Info : Audio Coding 3
Mode extension : CM (complete main)
Codec ID : 2000
Duration : 1h 56mn
Bit rate mode : Constant
Bit rate : 384 Kbps
Channel(s) : 6 channels
Channel positions : Front: L C R, Side: L R, LFE
Sampling rate : 48.0 KHz
Bit depth : 16 bits
Compression mode : Lossy
Stream size : 319 MiB (21%)
Alignment : Split accross interleaves
Interleave, duration : 42 ms (1.00 video frame)
Interleave, preload duration : 500 ms

Скриншоты



Скачать

Скачать торрент!

Как скачивать? · Что такое торрент? · Рейтинг и ограничения

Сайт не распространяет и не хранит электронные версии произведений, а лишь предоставляет доступ к создаваемому пользователями каталогу ссылок на торрент-файлы, которые содержат только списки хеш-сумм

[Профиль] [ЛС]
Показать сообщения:    
Ответить на тему

Текущее время: Сегодня 14:46

Часовой пояс: GMT + 4



Вы не можете начинать темы
Вы не можете отвечать на сообщения
Вы не можете редактировать свои сообщения
Вы не можете удалять свои сообщения
Вы не можете голосовать в опросах
Вы не можете прикреплять файлы к сообщениям
Вы не можете скачивать файлы