Почти герои / Almost Heroes (Кристофер Гест / Christopher Guest) [1998, США, комедия, приключения, вестерн, WEB-DL 720p] Dub (Варус Видео) + MVO (НТВ+) + VO (Николай Антонов) + AVO (Александр Кашкин) + Sub Eng + Original Eng

Ответить на тему
 
Автор Сообщение

user ®

Стаж: 7 лет 7 месяцев

Сообщений: 20008

Пост Пост: #1 от 03-Окт-2013 11:20

[Цитировать]

Почти герои / Almost Heroes
Страна: США
Жанр: комедия, приключения, вестерн
Год выпуска: 1998
Продолжительность: 01:30:19
Перевод 1: Профессиональный (дублированный) Варус Видео
Перевод 2: Профессиональный (многоголосый закадровый) НТВ+
Перевод 3: Одноголосый закадровый Николай Антонов
Перевод 4: Авторский (одноголосый закадровый) Александр Кашкин
Cубтитры: английские
Оригинальная аудиодорожка: английский
Режиссер: Кристофер Гест / Christopher Guest
В ролях: Крис Фарли, Мэттью Перри, Букем Вудбайн, Бэрри Дель Шерман, Роберт Титтор, Франклин Ковер, Дэвид Пэкер, Юджин Леви, Лиза Барбуша, Кристиан Клименсон...
Описание: В 1794 году по поручению президента США состоялась экспедиция на Дикий Запад, в последствии названная экспедицией Льюиса и Кларка. Однако мало кто знает, что немногим ранее состоялась другая экспедиция по тому же маршруту.
Группа веселых дебоширов и бедолаг, невзирая на невероятные препятствия и козни врагов, достигла американских берегов Тихого океана и даже пошла немного далее.
Доп. информация: За оцифровку VHS с переводами от Варус Видео и Антонова спасибо Fikaloid и 21Sepsis.
Перевод НТВ+ с раздачи Vikachka, перевод Кашкина с раздачи White Owl.
Сэмпл: http://multi-up.com/907582
Тип релиза: WEB-DL 720p
Контейнер: MKV
Видео: 1278x720 (16:9), 23.976 fps, AVC, ~4162 Kbps, 0.189 bits/pixel
Аудио 1: Russian, 48.0 KHz, AC3, 2 ch, 224 Kbps - Варус Видео
Аудио 2: Russian, 48.0 KHz, AC3, 2 ch, 128 Kbps - НТВ+
Аудио 3: Russian, 48.0 KHz, AC3, 1 ch, 192 Kbps - Николай Антонов
Аудио 4: Russian, 48.0 KHz, AC3, 2 ch, 192 Kbps - Александр Кашкин
Аудио 5: English, 48.0 KHz, AC3, 6 ch, 448 Kbps
Формат субтитров: softsub (SRT)

MediaInfo

General
Unique ID : 185859953067326803467107796730031811300 (0x8BD3532D22EC5C3592AEF6A3B2CAAAE4)
Complete name : D:\Almost Heroes.mkv
Format : Matroska
Format version : Version 4 / Version 2
File size : 3.44 GiB
Duration : 1h 30mn
Overall bit rate : 5 454 Kbps
Encoded date : UTC 2013-09-28 09:29:15
Writing application : mkvmerge v6.4.1 ('Omega Point') built on Sep 16 2013 22:05:10
Writing library : libebml v1.3.0 + libmatroska v1.4.1
Video
ID : 1
Format : AVC
Format/Info : Advanced Video Codec
Format profile : High@L3.1
Format settings, CABAC : No
Format settings, ReFrames : 2 frames
Format settings, GOP : N=1
Codec ID : V_MPEG4/ISO/AVC
Duration : 1h 30mn
Bit rate : 4 161 Kbps
Width : 1 278 pixels
Height : 720 pixels
Display aspect ratio : 16:9
Frame rate mode : Constant
Frame rate : 23.976 fps
Color space : YUV
Chroma subsampling : 4:2:0
Bit depth : 8 bits
Scan type : Progressive
Bits/(Pixel*Frame) : 0.189
Stream size : 2.63 GiB (76%)
Default : Yes
Forced : No
Color primaries : BT.709
Transfer characteristics : BT.709
Matrix coefficients : BT.709
Audio #1
ID : 2
Format : AC-3
Format/Info : Audio Coding 3
Mode extension : CM (complete main)
Format settings, Endianness : Big
Codec ID : A_AC3
Duration : 1h 30mn
Bit rate mode : Constant
Bit rate : 224 Kbps
Channel count : 2 channels
Channel positions : Front: L R
Sampling rate : 48.0 KHz
Bit depth : 16 bits
Compression mode : Lossy
Stream size : 145 MiB (4%)
Title : Варус Видео
Language : Russian
Default : Yes
Forced : No
Audio #2
ID : 3
Format : AC-3
Format/Info : Audio Coding 3
Mode extension : CM (complete main)
Format settings, Endianness : Big
Codec ID : A_AC3
Duration : 1h 30mn
Bit rate mode : Constant
Bit rate : 128 Kbps
Channel count : 2 channels
Channel positions : Front: L R
Sampling rate : 48.0 KHz
Bit depth : 16 bits
Compression mode : Lossy
Stream size : 82.7 MiB (2%)
Title : НТВ+
Language : Russian
Default : No
Forced : No
Audio #3
ID : 4
Format : AC-3
Format/Info : Audio Coding 3
Mode extension : CM (complete main)
Format settings, Endianness : Big
Codec ID : A_AC3
Duration : 1h 30mn
Bit rate mode : Constant
Bit rate : 192 Kbps
Channel count : 1 channel
Channel positions : Front: C
Sampling rate : 48.0 KHz
Bit depth : 16 bits
Compression mode : Lossy
Stream size : 124 MiB (4%)
Title : Николай Антонов
Language : Russian
Default : No
Forced : No
Audio #4
ID : 5
Format : AC-3
Format/Info : Audio Coding 3
Mode extension : CM (complete main)
Format settings, Endianness : Big
Codec ID : A_AC3
Duration : 1h 30mn
Bit rate mode : Constant
Bit rate : 192 Kbps
Channel count : 2 channels
Channel positions : Front: L R
Sampling rate : 48.0 KHz
Bit depth : 16 bits
Compression mode : Lossy
Stream size : 124 MiB (4%)
Title : Александр Кашкин
Language : Russian
Default : No
Forced : No
Audio #5
ID : 6
Format : AC-3
Format/Info : Audio Coding 3
Mode extension : CM (complete main)
Format settings, Endianness : Big
Codec ID : A_AC3
Duration : 1h 30mn
Bit rate mode : Constant
Bit rate : 448 Kbps
Channel count : 6 channels
Channel positions : Front: L C R, Side: L R, LFE
Sampling rate : 48.0 KHz
Bit depth : 16 bits
Compression mode : Lossy
Stream size : 290 MiB (8%)
Language : English
Default : No
Forced : No
Text
ID : 7
Format : UTF-8
Codec ID : S_TEXT/UTF8
Codec ID/Info : UTF-8 Plain Text
Language : English
Default : No
Forced : No
Menu
00:00:00.000 : en:Chapter 1
00:02:29.000 : en:Chapter 2
00:05:39.000 : en:Chapter 3
00:10:20.000 : en:Chapter 4
00:15:03.000 : en:Chapter 5
00:21:53.000 : en:Chapter 6
00:26:03.000 : en:Chapter 7
00:33:25.000 : en:Chapter 8
00:37:04.000 : en:Chapter 9
00:41:29.000 : en:Chapter 10
00:49:48.000 : en:Chapter 11
00:52:18.000 : en:Chapter 12
01:01:20.000 : en:Chapter 13
01:03:57.000 : en:Chapter 14
01:06:31.000 : en:Chapter 15
01:11:16.000 : en:Chapter 16
01:17:03.000 : en:Chapter 17
01:19:44.000 : en:Chapter 18
01:23:58.000 : en:Chapter 19
01:26:21.000 : en:Chapter 20

Скриншоты

Скачать

Скачать торрент!

Как скачивать? · Что такое торрент? · Рейтинг и ограничения

Сайт не распространяет и не хранит электронные версии произведений, а лишь предоставляет доступ к создаваемому пользователями каталогу ссылок на торрент-файлы, которые содержат только списки хеш-сумм

[Профиль] [ЛС]
Показать сообщения:    
Ответить на тему

Текущее время: Сегодня 05:58

Часовой пояс: GMT + 4



Вы не можете начинать темы
Вы не можете отвечать на сообщения
Вы не можете редактировать свои сообщения
Вы не можете удалять свои сообщения
Вы не можете голосовать в опросах
Вы не можете прикреплять файлы к сообщениям
Вы не можете скачивать файлы