Школьные войны: Герой / School Wars: Hero (Икуо Секимото / Ikuo Sekimoto) [2004, Япония, драма, DVDRip] Sub Rus

Ответить на тему
 
Автор Сообщение

user ®

Стаж: 11 лет

Сообщений: 15151

Пост Пост: #1 от 03-Окт-2013 06:50

[Цитировать]

Школьные войны: Герой / School Wars: Hero
Страна: Япония
Жанр: драма
Год выпуска: 2004
Продолжительность: 01:58:17
Перевод: Субтитры от krnr
Cубтитры: русские
Оригинальная аудиодорожка: Японский
Режиссер: Икуо Секимото / Ikuo Sekimoto
В ролях: Shōei, Emi Wakui, Sayaka Kanda, Kōtarō Satomi, Tomohisa Yuge, Asahi Uchida, Katsuya Kobayashi
Описание: Ямагами, бывший игрок сборной Японии по регби, работает учителем физкультуры в средней школе. По просьбе директора одной из старших школ, в которой серьёзные проблемы с дисциплиной, Ямагами переходит тренером по регби туда. Директор надеется, что такой сильный человек сможет исправить положение.
Примечание: Раздача создана с разрешения автора перевода, и добытчика самого фильма - krnr.
Его другие переводы фильмов о регби: [url=http://***/forum/viewtopic.php?t=3565418]Мачо на досуге / Freetime Machos[/url] и [url=http://***/forum/viewtopic.php?t=3934893]Сын Джо / Le Fils a Jo[/url]
Качество видео: DVDRip
Формат видео: AVI
Видео: XVID, 640х352, 16:9, 23.976 fps, 1260 Kbps
Аудио: AC-3, 48.0 Khz, 384 Kbps, 2 channels
Формат субтитров: softsub (SRT)-Сэмпл-

MediaInfo

General
Complete name : R:\video\School Wars Hero\School.Wars.Hero.2004.DVDRip.XviD.AC3.avi
Format : AVI
Format/Info : Audio Video Interleave
File size : 1.37 GiB
Duration : 1h 58mn
Overall bit rate : 1 654 Kbps
Video
ID : 0
Format : MPEG-4 Visual
Format profile : Advanced Simple@L5
Format settings, BVOP : 2
Format settings, QPel : No
Format settings, GMC : No warppoints
Format settings, Matrix : Default (H.263)
Muxing mode : Packed bitstream
Codec ID : XVID
Codec ID/Hint : XviD
Duration : 1h 58mn
Bit rate : 1 260 Kbps
Width : 640 pixels
Height : 352 pixels
Display aspect ratio : 16:9
Frame rate : 23.976 fps
Color space : YUV
Chroma subsampling : 4:2:0
Bit depth : 8 bits
Scan type : Progressive
Compression mode : Lossy
Bits/(Pixel*Frame) : 0.233
Stream size : 1.04 GiB (76%)
Writing library : XviD 1.0.3 (UTC 2004-12-20)
Audio
ID : 1
Format : AC-3
Format/Info : Audio Coding 3
Format profile : Dolby Digital
Mode extension : CM (complete main)
Format settings, Endianness : Big
Codec ID : 2000
Duration : 1h 58mn
Source duration : 1h 58mn
Bit rate mode : Constant
Bit rate : 384 Kbps
Channel(s) : 2 channels
Channel positions : Front: L R
Sampling rate : 48.0 KHz
Bit depth : 16 bits
Compression mode : Lossy
Stream size : 325 MiB (23%)
Alignment : Aligned on interleaves
Interleave, duration : 42 ms (1.00 video frame)

Кусок субтитров

404
00:33:36,948 --> 00:33:38,210
Доброе утро.
405
00:33:41,986 --> 00:33:43,317
Г-н Камеда,
406
00:33:43,488 --> 00:33:45,649
Г-н Асано, г-н Курихара.
407
00:33:45,823 --> 00:33:50,385
Господин Ямагами,
мы говорили всю ночь.
408
00:33:50,561 --> 00:33:54,327
Мы были неправы.
409
00:33:56,367 --> 00:33:59,894
Я был здесь так долго...
410
00:34:00,738 --> 00:34:05,539
что я забыл, что я учитель.
411
00:34:05,710 --> 00:34:09,009
Мы с вами.
412
00:34:09,547 --> 00:34:13,677
Измените их жизнь с помощью регби.
413
00:34:13,851 --> 00:34:18,049
Помогите им сойти с их
порочного пути.
414
00:34:22,493 --> 00:34:25,485
Спасибо, спасибо.
415
00:34:25,897 --> 00:34:27,421
Большое спасибо.
416
00:34:35,106 --> 00:34:38,473
Араи, давно не виделись.
417
00:34:38,743 --> 00:34:39,903
Пошел нахер.
418
00:34:40,078 --> 00:34:44,276
Трешься вокруг моих парней
со своей чушью о регби,
419
00:34:45,917 --> 00:34:49,375
таскаешься с каким-то барахлом!
Отвали уже

Скриншот c названием фильма

Скриншоты

Скачать

Скачать торрент! Школьные войны: Герой / School Wars: Hero (Икуо Секимото / Ikuo Sekimoto) [2004, Япония, драма, DVDRip] Sub Rus

Как скачивать? · Что такое торрент? · Рейтинг и ограничения

Сайт не распространяет и не хранит электронные версии произведений, а лишь предоставляет доступ к создаваемому пользователями каталогу ссылок на торрент-файлы, которые содержат только списки хеш-сумм

[Профиль] [ЛС]
Показать сообщения:    
Ответить на тему

Текущее время: Сегодня 14:43

Часовой пояс: GMT + 4



Вы не можете начинать темы
Вы не можете отвечать на сообщения
Вы не можете редактировать свои сообщения
Вы не можете удалять свои сообщения
Вы не можете голосовать в опросах
Вы не можете прикреплять файлы к сообщениям
Вы не можете скачивать файлы