Ральф / Wreck-Іt Ralph (Рич Мур / Rich Moore) [2012 г., США, мультфильм, комедия, приключения, семейный, BDRip] Dub + Original (Eng) + Sub (Rus, Eng)

Ответить на тему
 
Автор Сообщение

user ®

Стаж: 13 лет

Сообщений: 15041

Пост Пост: #1 от 03-Окт-2013 00:30

[Цитировать]

РaльфWreсk-Іt Rаlph Год выпуска: 2012
Страна: США
Жанр: мультфильм, комедия, приключения, семейный
Продолжительность: 01:41:13
Перевод: Профессиональный полное дублирование
Оригинал: английский (отдельно)
Cубтитры: русские форсированные, русские, английские внешние, softsub (SRT)-Режиссёр: Рич Мур / Rich Moore-Роли озвучивали:
Джон Си Райли (Станислав Дужников), Джек МакБрайер (Александр Гудков), Сара Силверман (Наталия Медведева), Джейн Линч (Регина Щукина), Алан Тьюдик (Валентин Морозов), Джо Ло Трульо (танислав Концевич), Минди Калинг, Эд О’Нил, Деннис Хейсбёрт, Эди МакКлёрг, Рэймонд С. Перси, Джесс Харнелл, Рэйчел Харрис, Скайлар Эстин, Адам Каролла, Хорэйшио Сэнс, Морис ЛаМарш, Стефани Скотт, Джон Ди Маджио, Рич Мур, Кэти Лоус, Джеми Элман-Описание:
Ральф — второстепенный персонаж восьмибитной компьютерной игры, и ему надоело находиться в тени главного героя, мастера на все руки Феликса, который всегда появляется, чтобы «исправить» ситуацию! После тридцати лет добросовестной работы в роли злодея, в течение которых все похвалы выпадали на долю Феликса, Ральф больше не хочет быть плохим.
Он решает отправиться в путешествие по аркадным играм разных жанров, чтобы доказать всем, что и он тоже может быть героем. На своем пути Ральф встречает героев разных игр — хладнокровную сержанта Калхун из игры Hero’s Duty, оберегающую планету от нашествия инопланетных захватчиков, и сладкую на вид, но острую на язычок Сластену фон Дю, чье существование в гоночном симуляторе Sugar Rush внезапно оказывается под угрозой. Наконец-то Ральфу выпадает шанс показать, что он умеет не только разрушать!
-
  • Полицейских в форме пончика и эклера в игре «Сахарный форсаж» зовут Уинчел и Дункан. Это скрытый намек на две американские сети, торгующие пончиками, — Winchell’s Donut House и Dunkin’ Donuts.
  • В начале производства студия Disney собиралась дать эпизодическую роль Марио и Луиджи, но оказалась не в состоянии выплатить за них гонорар компании Nintendo и обратилась к ней с просьбой использовать хотя бы символику. В итоге персонаж Феликс получил некоторые атрибуты Марио: комбинезон, сопровождающие звуки из Mario Bros. 1980-х, а также некоторые движения (прыжки и вращения, которые были в поздних играх серии).
  • В мультфильме задействовано более 180 уникальных персонажей — втрое больше, чем в любом другом среднестатистическом анимационном фильме.
  • В отличие от большинства анимационных фильмов, актеры, озвучивающие основных персонажей, записывались вместе в одной комнате, что, естественно, привело к множественным импровизациям.
  • Первые два месяца написания сценария фильма главным персонажем был Феликс (Джек МакБрайер).
  • На ранних этапах создания Ральфа хотели сделать восьмибитным во всем фильме, но потом сочли, что он был бы недостаточно милым, и отказались от этой идеи.
  • Персонаж Ванилопа был создан по образу самой Сары Силверман, озвучивавшей Венилопу, после прочтения ее автобиографии The Bedwetter: Stories of Courage, Redemption and Pee.
  • Когда Ральф копается в ящике кладовки, он достает несколько предметов. Один — гриб роста из игры Super Mario Bros, второй — восклицательный знак из серии Metal Gear и Metal Gear Solid.

-
-IMDB: 7.8/10 (137 353 votes)
Кинопоиск: 8.004 (32 299)--Сэмпл--Качество видео: BDRip исходник BDRemux 1080p/HDClub
Формат видео: AVI
Видео кодек: XviD
Аудио кодек: АС3
Видео: 720x304 (2.37:1), 23.976 fps, XviD, ~1603 kbps avg, 0.30 bit/pixel
Аудио 1: 48 kHz, AC3 Dolby Digital, 3/2 (L,C,R,l,r) + LFE ch, ~448.00 kbps avg дубляж
Аудио 2: 48 kHz, AC3 Dolby Digital, 3/2 (L,C,R,l,r) + LFE ch, ~448.00 kbps avg оригинал (отдельно)

MI

General
Complete name : D:\Ralph.2012.BDRip\Ralph.2012.BDRip.avi
Format : AVI
Format/Info : Audio Video Interleave
File size : 1.46 GiB
Duration : 1h 41mn
Overall bit rate : 2 061 Kbps
Writing application : VirtualDubMod 1.5.10.3 (build 2550/release)
Writing library : VirtualDubMod build 2550/release
Video
ID : 0
Format : MPEG-4 Visual
Format profile : Advanced Simple@L5
Format settings, BVOP : 1
Format settings, QPel : No
Format settings, GMC : No warppoints
Format settings, Matrix : Custom
Codec ID : XVID
Codec ID/Hint : XviD
Duration : 1h 41mn
Bit rate : 1 603 Kbps
Width : 720 pixels
Height : 304 pixels
Display aspect ratio : 2.35:1
Frame rate : 23.976 fps
Color space : YUV
Chroma subsampling : 4:2:0
Bit depth : 8 bits
Scan type : Progressive
Compression mode : Lossy
Bits/(Pixel*Frame) : 0.306
Stream size : 1.13 GiB (78%)
Writing library : XviD 64
Audio
ID : 1
Format : AC-3
Format/Info : Audio Coding 3
Mode extension : CM (complete main)
Codec ID : 2000
Duration : 1h 41mn
Bit rate mode : Constant
Bit rate : 448 Kbps
Channel(s) : 6 channels
Channel positions : Front: L C R, Side: L R, LFE
Sampling rate : 48.0 KHz
Bit depth : 16 bits
Compression mode : Lossy
Stream size : 324 MiB (22%)
Alignment : Split accross interleaves
Interleave, duration : 42 ms (1.00 video frame)
Interleave, preload duration : 500 ms

Скриншоты



Скачать

Скачать торрент! Ральф / Wreck-Іt Ralph (Рич Мур / Rich Moore) [2012 г., США, мультфильм, комедия, приключения, семейный, BDRip] Dub + Original (Eng) + Sub (Rus, Eng)

Как скачивать? · Что такое торрент? · Рейтинг и ограничения

Сайт не распространяет и не хранит электронные версии произведений, а лишь предоставляет доступ к создаваемому пользователями каталогу ссылок на торрент-файлы, которые содержат только списки хеш-сумм

[Профиль] [ЛС]
Показать сообщения:    
Ответить на тему

Текущее время: Сегодня 22:53

Часовой пояс: GMT + 4



Вы не можете начинать темы
Вы не можете отвечать на сообщения
Вы не можете редактировать свои сообщения
Вы не можете удалять свои сообщения
Вы не можете голосовать в опросах
Вы не можете прикреплять файлы к сообщениям
Вы не можете скачивать файлы