Станционный смотритель / The Station Agent (Томас МакКарти / Thomas McCarthy) [2003, США, драма, комедия, WEB-DL 1080p] MVO + Sub Rus, Eng + Original Eng

Ответить на тему
 
Автор Сообщение

user ®

Стаж: 7 лет 7 месяцев

Сообщений: 20008

Пост Пост: #1 от 03-Окт-2013 00:30

[Цитировать]

Станционный смотритель / The Station Agent Страна: США
Студия: SenArt Films, Next Wednesday Productions, Station Agent, The
Жанр: драма, комедия
Год выпуска: 2003
Продолжительность: 01:29:34
Перевод: Профессиональный (многоголосый закадровый)
Cубтитры: русские, английские
Оригинальная аудиодорожка: английский
Режиссер: Томас МакКарти / Thomas McCarthy
В ролях: Питер Динклэйдж, Бобби Каннавале, Патришия Кларксон, Пол Бенджамин, Джес Бланкфорт, Паула Гарсес, Джош Пэйс, Ричард Кайнд, Линн Коэн, Рэйвен Гудвин, Марла Сухаретса, Мишель Уильямс, Джейс Барток, Джон Слэттери
Описание: Финбар МакБрайд после смерти единственного друга поселяется в здании заброшенного вокзала в Нью-Джерси.
Доп. информация: Тип релиза: WEB-DL 1080p
Контейнер: MKV
Видео: MPEG-4 AVC Video, 1920x1080 / 1,78:1 (16:9) / ~4962 kbps / 23,976 fps / High@L4.0
Аудио 1: Russian: AC3, 6 ch, 384 kbps, 48 kHz
Аудио 2: English: AC3, 6 ch, 384 kbps, 48 kHz
Формат субтитров: softsub (SRT)
Главы: подписаны

MediaInfo

Общее
Уникальный идентификатор : 221007076650312763872522225099754726953 (0xA6446A28BEEFA6D8887E5D89172C6629)
Полное имя : Станционный смотритель 2003.WEB-DL.1080p.ПМ.Eng.mkv
Формат : Matroska
Версия формата : Version 4 / Version 2
Размер файла : 3,59 Гбайт
Продолжительность : 1 ч. 29 м.
Общий поток : 5732 Кбит/сек
Название фильма : The Station Agent (2003)
Дата кодирования : UTC 2013-09-30 09:51:48
Программа кодирования : mkvmerge v6.4.1 ('Omega Point') built on Sep 16 2013 22:05:10
Библиотека кодирования : libebml v1.3.0 + libmatroska v1.4.1
Видео
Идентификатор : 1
Формат : AVC
Формат/Информация : Advanced Video Codec
Профиль формата : High@L4.0
Параметр CABAC формата : Да
Параметр ReFrames формата : 4 кадра
Параметр GOP формата : N=1
Идентификатор кодека : V_MPEG4/ISO/AVC
Продолжительность : 1 ч. 29 м.
Битрейт : 4850 Кбит/сек
Ширина : 1920 пикселей
Высота : 1080 пикселей
Соотношение сторон : 16:9
Режим частоты кадров : Постоянный
Частота кадров : 23,976 кадра/сек
Цветовое пространство : YUV
Субдискретизация насыщенности : 4:2:0
Битовая глубина : 8 бит
Тип развёртки : Прогрессивная
Бит/(Пиксели*Кадры) : 0.098
Размер потока : 3,03 Гбайт (85%)
Язык : English
Default : Да
Forced : Нет
Основные цвета : BT.709
Характеристики трансфера : BT.709
Коэффициенты матрицы : BT.709
Аудио #1
Идентификатор : 2
Формат : AC-3
Формат/Информация : Audio Coding 3
Расширение режима : CM (complete main)
Параметр Endianness формата : Big
Идентификатор кодека : A_AC3
Продолжительность : 1 ч. 29 м.
Вид битрейта : Постоянный
Битрейт : 384 Кбит/сек
Каналы : 6 каналов
Расположение каналов : Front: L C R, Side: L R, LFE
Частота : 48,0 КГц
Битовая глубина : 16 бит
Метод сжатия : С потерями
Размер потока : 246 Мбайт (7%)
Заголовок : AC3 6ch 384kbps - многоголосый (DVD)
Язык : Russian
Default : Да
Forced : Нет
Аудио #2
Идентификатор : 3
Формат : AC-3
Формат/Информация : Audio Coding 3
Расширение режима : CM (complete main)
Параметр Endianness формата : Big
Идентификатор кодека : A_AC3
Продолжительность : 1 ч. 29 м.
Вид битрейта : Постоянный
Битрейт : 384 Кбит/сек
Каналы : 6 каналов
Расположение каналов : Front: L C R, Side: L R, LFE
Частота : 48,0 КГц
Битовая глубина : 16 бит
Метод сжатия : С потерями
Размер потока : 246 Мбайт (7%)
Заголовок : AC3 6ch 384kbps - original
Язык : English
Default : Нет
Forced : Нет
Текст #1
Идентификатор : 4
Формат : UTF-8
Идентификатор кодека : S_TEXT/UTF8
Идентификатор кодека/Информация : UTF-8 Plain Text
Язык : Russian
Default : Нет
Forced : Нет
Текст #2
Идентификатор : 5
Формат : UTF-8
Идентификатор кодека : S_TEXT/UTF8
Идентификатор кодека/Информация : UTF-8 Plain Text
Язык : English
Default : Нет
Forced : Нет
Текст #3
Идентификатор : 6
Формат : UTF-8
Идентификатор кодека : S_TEXT/UTF8
Идентификатор кодека/Информация : UTF-8 Plain Text
Заголовок : SDH
Язык : English
Default : Нет
Forced : Нет
Меню
00:00:00.000 : en:Opening Credits: Train Guys
00:05:58.000 : en:Leaving A Life Behind
00:10:17.000 : en:Gorgeous Frank's
00:12:33.000 : en:Running Into Fin
00:17:18.000 : en:A Walk About Town
00:18:26.000 : en:Olivia Pops In
00:23:14.000 : en:"You're The Man"
00:26:29.000 : en:"My Name's Fin"
00:29:35.000 : en:Train-Watching
00:34:53.000 : en:Giving Thanks
00:38:52.000 : en:"Walking The Right-Of-Way"
00:42:08.000 : en:Enjoying Life
00:47:29.000 : en:"Trains Are Really Cool"
00:52:14.000 : en:Simple And Boring?
00:57:15.000 : en:Fin's Nice Chin
01:02:09.000 : en:Waiting For Friends
01:07:41.000 : en:To Be Left Alone
01:10:01.000 : en:The Station Agent
01:13:40.000 : en:"Here I Am!"
01:19:21.000 : en:Reckoning
01:26:24.000 : en:End Credits

-

Скриншот с названием фильма

Скачать

Скачать торрент!

Как скачивать? · Что такое торрент? · Рейтинг и ограничения

Сайт не распространяет и не хранит электронные версии произведений, а лишь предоставляет доступ к создаваемому пользователями каталогу ссылок на торрент-файлы, которые содержат только списки хеш-сумм

[Профиль] [ЛС]
Показать сообщения:    
Ответить на тему

Текущее время: Сегодня 01:45

Часовой пояс: GMT + 4



Вы не можете начинать темы
Вы не можете отвечать на сообщения
Вы не можете редактировать свои сообщения
Вы не можете удалять свои сообщения
Вы не можете голосовать в опросах
Вы не можете прикреплять файлы к сообщениям
Вы не можете скачивать файлы