Бруклин в Манхэттене / N.Y.C. Underground (Джесси Терреро / Jessy Terrero) [2013, США, боевик, триллер, WEB-DL 1080p] VO + Original (Eng) + Sub (eng)

Ответить на тему
 
Автор Сообщение

user ®

Стаж: 7 лет 7 месяцев

Сообщений: 20008

Пост Пост: #1 от 03-Окт-2013 00:30

[Цитировать]

Бруклин в Манхэттене : N.Y.C. Underground«One wrong turn could be your last» Страна: США
Год выпуска: 2013
Жанр: боевик, триллер
Продолжительность: 01:26:33
Перевод: Одноголосый закадровый [Артём Белоконский]
русские субтитры: нет-Режиссёр: Джесси Терреро : Jessy Terrero
В главных ролях: Даня Рамирес, Шон Фэрис, Ариэль Кеббел, Клейн Кроуфорд, Роб Майес, Ивэн Росс, Кристал Хант, Мари Кода, Мэтт Сервитто, Рейнор Шайни-Описание: Действия разворачиваются в тоннелях метро. Максимум усилий предстоит приложить двум братьям - Дилану и Логану, чтобы выбраться на поверхность невредимыми. Причем они не единственные, кому суждено побороться за жизнь...- -Качество: WEB-DL 1080p
Формат: MKV
Видео кодек: AVC
Аудио кодек: АС3
Видео: 1912x1072, 23.976 fps, ~4 517 kbps avg, 0.092 bit/pixel
Аудио #1: [RUS] 48 kHz, AC3 Dolby Digital, 3/2 (L,C,R,l,r) + LFE ch, ~384 kbps
Аудио #2: [ENG] 48 kHz, AC3 Dolby Digital, 3/2 (L,C,R,l,r) + LFE ch, ~384 kbps
субтитры: английские
навигация по главам: 11 глав

скриншоты

MediaInfo

Общее
Уникальный идентификатор : 248178214557796910446823474600881723788 (0xBAB562AFE00B2DBFA8F211CF3C14998C)
Полное имя : D:\Im\Бруклин в Манхэттене\NYC Underground.2013.WEB-DL 1080p.mkv
Формат : Matroska
Версия формата : Version 4 / Version 2
Размер файла : 3,26 Гбайт
Продолжительность : 1 ч. 26 м.
Общий поток : 5392 Кбит/сек
Дата кодирования : UTC 2013-10-02 15:51:25
Программа кодирования : mkvmerge v6.4.1 ('Omega Point') built on Sep 16 2013 22:05:10
Библиотека кодирования : libebml v1.3.0 + libmatroska v1.4.1
Видео
Идентификатор : 1
Формат : AVC
Формат/Информация : Advanced Video Codec
Профиль формата : High@L4.0
Параметр CABAC формата : Да
Параметр ReFrames формата : 4 кадра
Идентификатор кодека : V_MPEG4/ISO/AVC
Продолжительность : 1 ч. 26 м.
Битрейт : 4517 Кбит/сек
Ширина : 1912 пикселей
Высота : 1072 пикселя
Соотношение сторон : 16:9
Частота кадров : 23,976 кадра/сек
Цветовое пространство : YUV
Субдискретизация насыщенности : 4:2:0
Битовая глубина : 8 бит
Тип развёртки : Прогрессивная
Бит/(Пиксели*Кадры) : 0.092
Размер потока : 2,73 Гбайт (84%)
Язык : English
Default : Да
Forced : Нет
Основные цвета : BT.709-5, BT.1361, IEC 61966-2-4, SMPTE RP177
Характеристики трансфера : BT.709-5, BT.1361
Коэффициенты матрицы : BT.709-5, BT.1361, IEC 61966-2-4 709, SMPTE RP177
Аудио #1
Идентификатор : 2
Формат : AC-3
Формат/Информация : Audio Coding 3
Расширение режима : CM (complete main)
Идентификатор кодека : A_AC3
Продолжительность : 1 ч. 26 м.
Вид битрейта : Постоянный
Битрейт : 384 Кбит/сек
Каналы : 6 каналов
Расположение каналов : Front: L C R, Side: L R, LFE
Частота : 48,0 КГц
Битовая глубина : 16 бит
Метод сжатия : С потерями
Размер потока : 238 Мбайт (7%)
Заголовок : VO [А. Белоконский]
Язык : Russian
Default : Да
Forced : Нет
Аудио #2
Идентификатор : 3
Формат : AC-3
Формат/Информация : Audio Coding 3
Расширение режима : CM (complete main)
Идентификатор кодека : A_AC3
Продолжительность : 1 ч. 26 м.
Вид битрейта : Постоянный
Битрейт : 384 Кбит/сек
Каналы : 6 каналов
Расположение каналов : Front: L C R, Side: L R, LFE
Частота : 48,0 КГц
Битовая глубина : 16 бит
Метод сжатия : С потерями
Размер потока : 238 Мбайт (7%)
Заголовок : ENG
Язык : English
Default : Нет
Forced : Нет
Текст
Идентификатор : 4
Формат : UTF-8
Идентификатор кодека : S_TEXT/UTF8
Идентификатор кодека/Информация : UTF-8 Plain Text
Заголовок : Eng Sub
Язык : English
Default : Нет
Forced : Нет
Меню
00:00:00.000 : en:Chapter 1
00:05:19.000 : en:Chapter 2
00:12:13.000 : en:Chapter 3
00:21:32.000 : en:Chapter 4
00:28:39.000 : en:Chapter 5
00:38:06.000 : en:Chapter 6
00:48:20.000 : en:Chapter 7
00:58:26.000 : en:Chapter 8
01:06:04.000 : en:Chapter 9
01:14:26.000 : en:Chapter 10
01:22:29.000 : en:Chapter 11
Скачать

Скачать торрент!

Как скачивать? · Что такое торрент? · Рейтинг и ограничения

Сайт не распространяет и не хранит электронные версии произведений, а лишь предоставляет доступ к создаваемому пользователями каталогу ссылок на торрент-файлы, которые содержат только списки хеш-сумм

[Профиль] [ЛС]
Показать сообщения:    
Ответить на тему

Текущее время: Сегодня 04:09

Часовой пояс: GMT + 4



Вы не можете начинать темы
Вы не можете отвечать на сообщения
Вы не можете редактировать свои сообщения
Вы не можете удалять свои сообщения
Вы не можете голосовать в опросах
Вы не можете прикреплять файлы к сообщениям
Вы не можете скачивать файлы