Срочная доставка / Kwik / Quick (Бом-гу Чо / Beom-gu Cho) [2011, Южная Корея, боевик, триллер, комедия, HDRip] MVO + Original + Sub Rus

Ответить на тему
 
Автор Сообщение

user ®

Стаж: 13 лет

Сообщений: 15071

Пост Пост: #1 от 02-Окт-2013 21:20

[Цитировать]

Срочная доставка / Kwik / Quick
Страна: Южная Корея
Жанр: боевик, триллер, комедия
Год выпуска: 2011
Продолжительность: 01:52:21
Перевод: Профессиональный (многоголосый закадровый)
Cубтитры: русские
Оригинальная аудиодорожка: корейский
Режиссер: Бом-гу Чо / Beom-gu Cho
В ролях: Ли Мин Ки, Кан Хе Вон, Ким Ин-квон, Ко Чан Сок, Чу Чжин Мо, Byeong-cheol Kim, Kim Eun-ok, Юн Чже Мун, Seung-Mok Yoo, Ма Дон Сок, Сон Чжэ-хо, Чон Гук Хван
Описание: Курьер Ки Су жить не может без скорости и гоняет на своем мотоцикле, как сумасшедший. Ки Су никогда не опаздывает, а потому ему поручают все самые срочные заказы. Однажды он получает вызов певицы Аром, которая опаздывает на прямой эфир, и берется доставить неудачливого артистку в срок. Ки су и его «звездная» заказчица садятся на мотоцикл, но тут раздается звонок мобильного. Неизвестный сообщает гонщику, что в его шлеме заложена бомба, которая взорвется, если он остановится. чтобы спастись Ки Су должен за тридцать минут доставить заряд в указанное место. так начинается эта смертельная поездка, исход которой непредсказуем...
Сэмпл: http://multi-up.com/908905
Качество видео: HDRip - BDRip 720p
Формат видео: AVI
Видео: 720x304 (2.37:1), 23.976 fps, XviD MPEG-4 ~1858 kbps avg, 0.35 bit/pixel
Аудио: 48 kHz, AC3 Dolby Digital, 3/2 (L,C,R,l,r) + LFE ch, ~448 kbps - MVO
Аудио 2: 48 kHz, AC3 Dolby Digital, 3/2 (L,C,R,l,r) + LFE ch, ~448 kbps - Original
Формат субтитров: softsub (SRT)

MediaInfo

Complete name : Srochnaja.dostavka\Srochnaja.dostavka.2011.P.HDRip.avi
Format : AVI
Format/Info : Audio Video Interleave
Format profile : OpenDML
File size : 2.17 GiB
Duration : 1h 52mn
Overall bit rate : 2 762 Kbps
Writing application : VirtualDubMod 1.5.10.2 (build 2540/release)
Video
ID : 0
Format : MPEG-4 Visual
Format profile : Advanced Simple@L5
Format settings, BVOP : 2
Format settings, QPel : No
Format settings, GMC : No warppoints
Format settings, Matrix : Custom
Codec ID : XVID
Codec ID/Hint : XviD
Duration : 1h 52mn
Bit rate : 1 848 Kbps
Width : 720 pixels
Height : 304 pixels
Display aspect ratio : 2.35:1
Frame rate : 23.976 fps
Color space : YUV
Chroma subsampling : 4:2:0
Bit depth : 8 bits
Scan type : Progressive
Compression mode : Lossy
Bits/(Pixel*Frame) : 0.352
Stream size : 1.45 GiB (67%)
Writing library : XviD 64
Audio #1
ID : 1
Format : AC-3
Format/Info : Audio Coding 3
Mode extension : CM (complete main)
Format settings, Endianness : Big
Codec ID : 2000
Duration : 1h 52mn
Bit rate mode : Constant
Bit rate : 448 Kbps
Channel(s) : 6 channels
Channel positions : Front: L C R, Side: L R, LFE
Sampling rate : 48.0 KHz
Bit depth : 16 bits
Compression mode : Lossy
Stream size : 360 MiB (16%)
Alignment : Split accross interleaves
Interleave, duration : 42 ms (1.00 video frame)
Interleave, preload duration : 500 ms
Audio #2
ID : 2
Format : AC-3
Format/Info : Audio Coding 3
Mode extension : CM (complete main)
Format settings, Endianness : Big
Codec ID : 2000
Duration : 1h 52mn
Bit rate mode : Constant
Bit rate : 448 Kbps
Channel(s) : 6 channels
Channel positions : Front: L C R, Side: L R, LFE
Sampling rate : 48.0 KHz
Bit depth : 16 bits
Compression mode : Lossy
Stream size : 360 MiB (16%)
Alignment : Split accross interleaves
Interleave, duration : 42 ms (1.00 video frame)
Interleave, preload duration : 500 ms

Скриншоты

Скачать

Скачать торрент! Срочная доставка / Kwik / Quick (Бом-гу Чо / Beom-gu Cho) [2011, Южная Корея, боевик, триллер, комедия, HDRip] MVO + Original + Sub Rus

Как скачивать? · Что такое торрент? · Рейтинг и ограничения

Сайт не распространяет и не хранит электронные версии произведений, а лишь предоставляет доступ к создаваемому пользователями каталогу ссылок на торрент-файлы, которые содержат только списки хеш-сумм

[Профиль] [ЛС]
Показать сообщения:    
Ответить на тему

Текущее время: Сегодня 20:55

Часовой пояс: GMT + 4



Вы не можете начинать темы
Вы не можете отвечать на сообщения
Вы не можете редактировать свои сообщения
Вы не можете удалять свои сообщения
Вы не можете голосовать в опросах
Вы не можете прикреплять файлы к сообщениям
Вы не можете скачивать файлы