Даосский маг Чон У Чхи / Jeon Woo Chi: The Taoist Wizard / Woochi (Чхве Дон Хун / Chve Don Hun) [2009, Южная Корея, боевик, комедия, приключения, история, HDRip] DVO (Ворон и MezIdA) + Original + Sub Rus

Ответить на тему
 
Автор Сообщение

user ®

Стаж: 13 лет

Сообщений: 15071

Пост Пост: #1 от 02-Окт-2013 21:20

[Цитировать]

Даосский маг Чон У Чхи / Jeon Woo Chi: The Taoist Wizard / Woochi
Страна: Южная Корея
Жанр: боевик, комедия, приключения, история
Год выпуска: 2009
Продолжительность: 02:15:22
Перевод: Любительский (двухголосый закадровый) Ворон и MezIdA
Cубтитры: русские
Оригинальная аудиодорожка: корейский
Режиссер: Чхве Дон Хун / Chve Don Hun
В ролях: Су-юн Лим, Юнь-cок Ким, Дон-вон Кан, Дон-вон Кан, Юнг-а Юм, Хё Ким, Юн-шик Баёк, Ён-чан Сон, Ю Ю
Описание: Примерно 500 лет назад в государстве Чосон произошло из ряда вон выходящее событие. Волшебная флейта, одно из величайших сокровищ страны, была похищена и оказалась в руках у злого чудовища. Небожители не могли остаться в стороне: они помогли побороть монстра и, чтобы защитить чудесный музыкальный инструмент от подобных посягательств в будущем, разделили его на две части и поручили их на хранение конфуцианскому учёному Хвадаму и буддийскому наставнику Чхонгвану.
Через некоторое время разносится весть о том, что почтенный монах убит, а та часть флейты, которая хранилась у него, похищена. Подозрение падает на ученика Чхонгвана по имени Чон У Чхи. В наказание юношу вместе с его верным псом Чхорэном заключают навеки в картину.
Сэмпл: http://multi-up.com/908963
Качество видео: HDRip - BDRip 720p
Формат видео: AVI
Видео: 720x304 (2.37:1), 23.976 fps, XviD MPEG-4 ~2082 kbps avg, 0.40 bit/pixel
Аудио: 48 kHz, AC3 Dolby Digital, 3/2 (L,C,R,l,r) + LFE ch, ~448 kbps - DVO
Аудио 2: 48 kHz, AC3 Dolby Digital, 3/2 (L,C,R,l,r) + LFE ch, ~448 kbps - Original
Формат субтитров: softsub (SRT)

MediaInfo

Complete name : Jeon Woo Chi. The Taoist Wizard.2009.HDRip.avi
Format : AVI
Format/Info : Audio Video Interleave
Format profile : OpenDML
File size : 2.82 GiB
Duration : 2h 15mn
Overall bit rate : 2 985 Kbps
Writing application : VirtualDubMod 1.5.10.1 (build 2366/release)
Writing library : VirtualDubMod build 2366/release
Video
ID : 0
Format : MPEG-4 Visual
Format profile : Advanced Simple@L5
Format settings, BVOP : 1
Format settings, QPel : No
Format settings, GMC : No warppoints
Format settings, Matrix : Default (MPEG)
Codec ID : XVID
Codec ID/Hint : XviD
Duration : 2h 15mn
Bit rate : 2 074 Kbps
Width : 720 pixels
Height : 304 pixels
Display aspect ratio : 2.35:1
Frame rate : 23.976 fps
Color space : YUV
Chroma subsampling : 4:2:0
Bit depth : 8 bits
Scan type : Progressive
Compression mode : Lossy
Bits/(Pixel*Frame) : 0.395
Stream size : 1.96 GiB (69%)
Writing library : XviD 1.2.1 (UTC 2008-12-04)
Audio #1
ID : 1
Format : AC-3
Format/Info : Audio Coding 3
Mode extension : CM (complete main)
Format settings, Endianness : Big
Codec ID : 2000
Duration : 2h 15mn
Bit rate mode : Constant
Bit rate : 448 Kbps
Channel(s) : 6 channels
Channel positions : Front: L C R, Side: L R, LFE
Sampling rate : 48.0 KHz
Bit depth : 16 bits
Compression mode : Lossy
Stream size : 434 MiB (15%)
Alignment : Split accross interleaves
Interleave, duration : 42 ms (1.00 video frame)
Interleave, preload duration : 500 ms
Audio #2
ID : 2
Format : AC-3
Format/Info : Audio Coding 3
Mode extension : CM (complete main)
Format settings, Endianness : Big
Codec ID : 2000
Duration : 2h 15mn
Bit rate mode : Constant
Bit rate : 448 Kbps
Channel(s) : 6 channels
Channel positions : Front: L C R, Side: L R, LFE
Sampling rate : 48.0 KHz
Bit depth : 16 bits
Compression mode : Lossy
Stream size : 434 MiB (15%)
Alignment : Split accross interleaves
Interleave, duration : 42 ms (1.00 video frame)
Interleave, preload duration : 500 ms

Скриншоты

Скачать

Скачать торрент! Даосский маг Чон У Чхи / Jeon Woo Chi: The Taoist Wizard / Woochi (Чхве Дон Хун / Chve Don Hun) [2009, Южная Корея, боевик, комедия, приключения, история, HDRip] DVO (Ворон и MezIdA) + Original + Sub Rus

Как скачивать? · Что такое торрент? · Рейтинг и ограничения

Сайт не распространяет и не хранит электронные версии произведений, а лишь предоставляет доступ к создаваемому пользователями каталогу ссылок на торрент-файлы, которые содержат только списки хеш-сумм

[Профиль] [ЛС]
Показать сообщения:    
Ответить на тему

Текущее время: Сегодня 18:08

Часовой пояс: GMT + 4



Вы не можете начинать темы
Вы не можете отвечать на сообщения
Вы не можете редактировать свои сообщения
Вы не можете удалять свои сообщения
Вы не можете голосовать в опросах
Вы не можете прикреплять файлы к сообщениям
Вы не можете скачивать файлы