Старик Хоттабыч (Геннадий Казанский) [1956, СССР, Фильм-сказка, BDRip 1080p] + Original Rus

Ответить на тему
 
Автор Сообщение

user ®

Стаж: 7 лет 7 месяцев

Сообщений: 20008

Пост Пост: #1 от 02-Окт-2013 21:20

[Цитировать]

Старик Хоттабыч
Страна: СССР
Студия: Ленфильм
Жанр: Фильм-сказка
Год выпуска: 1956
Продолжительность: 01:24:20
Перевод: Не требуется
Cубтитры: нет
Оригинальная аудиодорожка: русский
Режиссер: Геннадий Казанский
В ролях: Николай Волков (ст.), Алёша Литвинов, Гена Худяков, Лёва Ковальчук, Майя Блинова, Ефим Копелян, Александр Лариков, Вера Романова, Евгений Весник, Анатолий Королькевич
Описание: 12-летний московский школьник Волька, купаясь в Москва-реке, находит какой-то древний запечатанный сосуд. Мальчишеское любопытство настолько сильно, что при первом же удобном случае Волька вскрывает его, и из сосуда появляется сказочный джинн - Гассан Абдурахман ибн Хоттаб. За то, что Волька спас его от двухтысячелетнего заточения, джинн, прозванный мальчиком Хоттабычем, становится его верным слугой. Он пытается задарить мальчика, пригнав к его дому целый караван верблюдов с несметными сокровищами. Вместе они совершат увлекательный полет в Индию на волшебном ковре-самолете...
Доп. информация: Полная реставрация изображения и звука. Исходные киноматериалы подготовлены Госфильмофондом России. Покадровая цифровая реставрация изображения, ремастеринг звука и авторинг проведены объединением «Крупный план».
Сэмпл: http://multi-up.com/908947
Тип релиза: BDRip 1080p
Контейнер: MKV
Видео: 11,8 Мбит/сек, 1420 x 1080 (4:3), в 23.976 кадр/сек AVC (High@L4.1) (CABAC / 5 Ref Frames)
Аудио: 1510 Кбит/сек, 48,0 КГц, 6 каналов, DTS

MediaInfo

Общее
Уникальный идентификатор : 209636782730425577405563733646065118761 (0x9DB6936313D76714B50E2C9B9A79AE29)
Полное имя : G:\Старик Хоттабыч 1956, 1080p.mkv
Формат : Matroska
Версия формата : Version 2
Размер файла : 7,95 Гбайт
Продолжительность : 1 ч. 25 м.
Общий поток : 13,3 Мбит/сек
Название фильма : Старик Хоттабыч 1956, 1080p
Дата кодирования : UTC 2011-08-19 12:23:00
Программа кодирования : mkvmerge v3.4.0 ('Rapunzel') сборка от May 15 2010 09:38:20
Библиотека кодирования : libebml v0.8.0 + libmatroska v0.9.0
Видео
Идентификатор : 1
Формат : AVC
Формат/Информация : Advanced Video Codec
Профиль формата : High@L4.1
Параметр CABAC формата : Да
Параметр ReFrames формата : 5 кадров
Идентификатор кодека : V_MPEG4/ISO/AVC
Продолжительность : 1 ч. 25 м.
Битрейт : 11,8 Мбит/сек
Ширина : 1420 пикс.
Высота : 1080 пикс.
Соотношение сторон : 4:3
Частота кадров : 23,976 кадр/сек
Цветовое пространство : YUV
Подвыборка цветности : 4:2:0
Битовая глубина : 8 бит
Тип развёртки : Прогрессивная
Бит/(Пиксели*Кадры) : 0.322
Размер потока : 6,89 Гбайт (87%)
Библиотека кодирования : x264 core 115 r1995 c1e60b9
Настройки программы : cabac=1 / ref=5 / deblock=1:-3:-3 / analyse=0x3:0x113 / me=umh / subme=10 / psy=1 / psy_rd=1.00:0.10 / mixed_ref=1 / me_range=32 / chroma_me=1 / trellis=2 / 8x8dct=1 / cqm=0 / deadzone=21,11 / fast_pskip=0 / chroma_qp_offset=-2 / threads=6 / sliced_threads=0 / slices=4 / nr=0 / decimate=1 / interlaced=0 / bluray_compat=0 / constrained_intra=0 / bframes=7 / b_pyramid=2 / b_adapt=2 / b_bias=0 / direct=1 / weightb=1 / open_gop=0 / weightp=2 / keyint=250 / keyint_min=23 / scenecut=40 / intra_refresh=0 / rc_lookahead=40 / rc=2pass / mbtree=0 / bitrate=11823 / ratetol=1.0 / qcomp=0.60 / qpmin=10 / qpmax=51 / qpstep=4 / cplxblur=20.0 / qblur=0.5 / vbv_maxrate=50000 / vbv_bufsize=50000 / nal_hrd=none / ip_ratio=1.40 / pb_ratio=1.30 / aq=1:1.00
Язык : Russian
Аудио
Идентификатор : 2
Формат : DTS
Формат/Информация : Digital Theater Systems
Идентификатор кодека : A_DTS
Продолжительность : 1 ч. 25 м.
Вид битрейта : Постоянный
Битрейт : 1510 Кбит/сек
Каналы : 6 каналов
Расположение каналов : Front: L C R, Side: L R, LFE
Частота : 48,0 КГц
Битовая глубина : 24 бит
Метод сжатия : С потерями
Размер потока : 924 Мбайт (11%)
Заголовок : DTS
Язык : Russian
Меню
00:00:00.000 : en:00:00:00.000
00:02:28.899 : en:00:02:28.899
00:08:47.402 : en:00:08:47.402
00:13:23.928 : en:00:13:23.928
00:20:18.717 : en:00:20:18.717
00:29:09.247 : en:00:29:09.247
00:37:14.107 : en:00:37:14.107
00:42:00.017 : en:00:42:00.017
00:44:18.281 : en:00:44:18.281
00:55:38.335 : en:00:55:38.335
00:59:22.309 : en:00:59:22.309
01:07:24.040 : en:01:07:24.040
01:08:39.115 : en:01:08:39.115
01:19:06.617 : en:01:19:06.617
01:22:31.822 : en:01:22:31.822

Скриншоты

Скачать

Скачать торрент!

Как скачивать? · Что такое торрент? · Рейтинг и ограничения

Сайт не распространяет и не хранит электронные версии произведений, а лишь предоставляет доступ к создаваемому пользователями каталогу ссылок на торрент-файлы, которые содержат только списки хеш-сумм

[Профиль] [ЛС]
Показать сообщения:    
Ответить на тему

Текущее время: Сегодня 18:14

Часовой пояс: GMT + 4



Вы не можете начинать темы
Вы не можете отвечать на сообщения
Вы не можете редактировать свои сообщения
Вы не можете удалять свои сообщения
Вы не можете голосовать в опросах
Вы не можете прикреплять файлы к сообщениям
Вы не можете скачивать файлы