Тихоокеанский рубеж / Pacific Rim (Гильермо дель Торо / Guillermo del Toro) [2013, США, фантастика, фэнтези, боевик, приключения, WEB-DL 1080p] Dub (Звук с TS) + Sub Eng + Original Eng

Ответить на тему
 
Автор Сообщение

user ®

Стаж: 7 лет 7 месяцев

Сообщений: 20008

Пост Пост: #1 от 02-Окт-2013 21:20

[Цитировать]

Тихоокеанский рубеж / Pacific Rim
Страна: США
Жанр: фантастика, фэнтези, боевик, приключения
Год выпуска: 2013
Продолжительность: 02:11:14
Перевод: Профессиональный (дублированный) (Звук с TS)
Cубтитры: английские
Оригинальная аудиодорожка: английский
Режиссер: Гильермо дель Торо/Guillermo del Toro
В ролях: Чарли Ханнэм, Рон Перлман, Идрис Эльба, Диего Клаттенхофф, Чарли Дэй, Берн Горман, Клифтон Коллинз мл., Ринко Кикучи, Роберт Мэйллет, Макс Мартини
Описание: Когда из морских глубин поднялись легионы чудовищ, известных как Кайдзу, началась война, которой суждено было забрать миллионы жизней и свести «человеческие ресурсы» почти к нулю всего за несколько лет. Чтобы сражаться с пришельцами, было создано специальное оружие: огромные роботы, названные Джегерами, они управлялись одновременно двумя пилотами, чьи сознания соединены с помощью нейронной связи. Но даже Джегеры оказываются почти бессильны перед лицом безжалостных Кайдзу. На грани поражения у защитников человечества нет выбора, кроме как обратиться к двум весьма сомнительным героям — никому не нужному бывшему пилоту и неопытному стажеру — которые объединились, чтобы повести в бой некогда легендарного, но сейчас устаревшего Джегера. Вместе они оказываются единственной надеждой человечества, последним препятствием перед надвигающимся апокалипсисом
Качество видео: BDRip
Формат видео: MKV
Сэмпл: http://sendfile.su/874992
Источник:.............: iTunes (US)
Видео: WEB-DL 1080p, 4978 Кбит/c, 1918x1078 (16:9), 23.976 кадра/cек, AVC (High@4.0)
Аудио: Russian: MP3, 192 kb/s (2 ch), 48,0 КГц
Аудио 2: English: AC3, 384 kb/s (6 ch), 48,0 КГц
Формат субтитров: softsub (SRT)

MediaInfo

Общее
Уникальный идентификатор : 199952392565970851210739113685984065752 (0x966D6E16694339CFA0A3683FAD9DB8D8)
Полное имя : J:\Фильмы\Фантастика\Pacific.Rim.2013.1080p.WEB-DL.H264-PublicHD\Pacific.Rim.2013.1080p.WEB-DL.H264-PublicHD.Rus.mkv
Формат : Matroska
Версия формата : Version 4 / Version 2
Размер файла : 5,19 Гбайт
Продолжительность : 2 ч. 11 м.
Общий поток : 5666 Кбит/сек
Дата кодирования : UTC 2013-10-01 13:45:51
Программа кодирования : mkvmerge v6.1.0 ('Old Devil') built on Mar 2 2013 14:32:37
Библиотека кодирования : libebml v1.3.0 + libmatroska v1.4.0
Видео
Идентификатор : 1
Формат : AVC
Формат/Информация : Advanced Video Codec
Профиль формата : High@L4.0
Параметр CABAC формата : Да
Параметр ReFrames формата : 4 кадра
Идентификатор кодека : V_MPEG4/ISO/AVC
Продолжительность : 2 ч. 11 м.
Битрейт : 4978 Кбит/сек
Ширина : 1918 пикселей
Высота : 1078 пикселей
Соотношение сторон : 16:9
Режим частоты кадров : Постоянный
Частота кадров : 23,976 кадра/сек
Цветовое пространство : YUV
Субдискретизация насыщенности : 4:2:0
Битовая глубина : 8 бит
Тип развёртки : Прогрессивная
Бит/(Пиксели*Кадры) : 0.100
Размер потока : 4,56 Гбайт (88%)
Язык : English
Default : Да
Forced : Нет
Основные цвета : BT.709
Характеристики трансфера : BT.709
Коэффициенты матрицы : BT.709
Аудио #1
Идентификатор : 2
Формат : MPEG Audio
Версия формата : Version 1
Профиль формата : Layer 3
Режим : Joint stereo
Идентификатор кодека : A_MPEG/L3
Идентификатор кодека/Подсказка : MP3
Продолжительность : 2 ч. 11 м.
Вид битрейта : Постоянный
Битрейт : 192 Кбит/сек
Каналы : 2 канала
Частота : 48,0 КГц
Метод сжатия : С потерями
Размер потока : 180 Мбайт (3%)
Заголовок : Russian
Язык : Russian
Default : Нет
Forced : Да
Аудио #2
Идентификатор : 3
Формат : AC-3
Формат/Информация : Audio Coding 3
Расширение режима : CM (complete main)
Параметр Endianness формата : Big
Идентификатор кодека : A_AC3
Продолжительность : 2 ч. 11 м.
Вид битрейта : Постоянный
Битрейт : 384 Кбит/сек
Каналы : 6 каналов
Расположение каналов : Front: L C R, Side: L R, LFE
Частота : 48,0 КГц
Битовая глубина : 16 бит
Метод сжатия : С потерями
Размер потока : 360 Мбайт (7%)
Заголовок : English
Язык : English
Default : Да
Forced : Нет
Текст
Идентификатор : 4
Формат : UTF-8
Идентификатор кодека : S_TEXT/UTF8
Идентификатор кодека/Информация : UTF-8 Plain Text
Заголовок : English
Язык : English
Default : Нет
Forced : Нет
Меню
00:00:00.000 : en:1.
00:09:15.000 : en:2.
00:18:42.000 : en:3.
00:23:10.000 : en:4.
00:33:05.000 : en:5.
00:42:49.000 : en:6.
00:50:06.000 : en:7.
01:01:13.000 : en:8.
01:14:47.000 : en:9.
01:22:23.000 : en:10.
01:32:11.000 : en:11.
01:41:56.000 : en:12.
01:51:38.000 : en:13.
01:59:21.000 : en:14.
02:02:17.000 : en:15.

Скриншот c названием фильма

Скриншоты


Скачать

Скачать торрент!

Как скачивать? · Что такое торрент? · Рейтинг и ограничения

Сайт не распространяет и не хранит электронные версии произведений, а лишь предоставляет доступ к создаваемому пользователями каталогу ссылок на торрент-файлы, которые содержат только списки хеш-сумм

[Профиль] [ЛС]
Показать сообщения:    
Ответить на тему

Текущее время: Сегодня 13:41

Часовой пояс: GMT + 4



Вы не можете начинать темы
Вы не можете отвечать на сообщения
Вы не можете редактировать свои сообщения
Вы не можете удалять свои сообщения
Вы не можете голосовать в опросах
Вы не можете прикреплять файлы к сообщениям
Вы не можете скачивать файлы