Экзамен для двоих / Admission (Пол Вайц / Paul Weitz) [2013, США, мелодрама, комедия, BDRip 1080p] Dub + Original (Eng) + Sub (Rus, Eng)

Ответить на тему
 
Автор Сообщение

user ®

Стаж: 7 лет 7 месяцев

Сообщений: 20008

Пост Пост: #1 от 02-Окт-2013 21:20

[Цитировать]

Экзамен для двоих / Admission
Страна: США
Студия: Depth of Field
Жанр: мелодрама, комедия
Год выпуска: 2013
Продолжительность: 01:47:07
Перевод: профессиональный (дублированный) [Blu-ray Rus]
Оригинальная аудиодорожка: английская
Cубтитры: русские, английские
Режиссер: Пол Вайц / Paul Weitz
В ролях: Тина Фей, Пол Радд, Майкл Шин, Уоллес Шоун, Лили Томлин, Энн Харада, Бен Левин, Дэн Леви, Мэгги Кинэн-Болджер, Глория Рубен
Описание: Полли Нельсон работает в приемной комиссии престижного университета, она — вершитель судеб многих подростков. Но как устроить собственную судьбу? Появление идеального мужчины вовсе не обещает мир и покой, наоборот, приносит в её жизнь множество дурацких ситуаций и не всегда приятных сюрпризов. А тут ещё объявляется сын, которого Полли считала потерянным, и он, увы, далеко не отличник. Что спасать в первую очередь, карьеру или личную жизнь?

Релиз: fanatus
Качество видео: BDRip 1080p
Исходник: BDRemux 1080p [US transfer]
Контейнер: MKV
Видео: MPEG-4 AVC, 18 Mbps , 1916x800 (2.40:1), 23.976 fps, 0.490 bit/pixel
Аудио 1: русский (DTS, 6 ch, 48 kHz, 1510 kbps)
Аудио 2: английский (DTS, 6 ch, 48 kHz, 1510 kbps)
Формат субтитров: softsub (SRT)
Главы: есть

MediaInfo

General
Unique ID : 196477460154955214482571910719434524883 (0x93D02EB12C7EF12D9FCAA1565A2A08D3)
Complete name : E:\Admission.2013.x264.BDRip.1080p.fanatus.mkv
Format : Matroska
Format version : Version 2
File size : 15.7 GiB
Duration : 1h 47mn
Overall bit rate : 21.0 Mbps
Movie name : Admission (2013) - fanatus
Encoded date : UTC 2013-09-23 09:55:56
Writing application : mkvmerge v3.4.0 ('Rapunzel') сборка от May 15 2010 09:38:20
Writing library : libebml v0.8.0 + libmatroska v0.9.0
Video
ID : 1
Format : AVC
Format/Info : Advanced Video Codec
Format profile : High@L4.1
Format settings, CABAC : Yes
Format settings, ReFrames : 5 frames
Codec ID : V_MPEG4/ISO/AVC
Duration : 1h 47mn
Bit rate : 18.0 Mbps
Width : 1 916 pixels
Height : 800 pixels
Display aspect ratio : 2.40:1
Frame rate : 23.976 fps
Color space : YUV
Chroma subsampling : 4:2:0
Bit depth : 8 bits
Scan type : Progressive
Bits/(Pixel*Frame) : 0.490
Stream size : 13.1 GiB (84%)
Title : Admission (2013)
Writing library : x264 core 138 r2358 9e941d1
Encoding settings : cabac=1 / ref=5 / deblock=1:-3:-3 / analyse=0x3:0x113 / me=tesa / subme=11 / psy=1 / psy_rd=1.00:0.10 / mixed_ref=1 / me_range=32 / chroma_me=1 / trellis=2 / 8x8dct=1 / cqm=0 / deadzone=21,11 / fast_pskip=0 / chroma_qp_offset=-3 / threads=16 / lookahead_threads=2 / sliced_threads=0 / nr=0 / decimate=0 / interlaced=0 / bluray_compat=0 / constrained_intra=0 / bframes=8 / b_pyramid=2 / b_adapt=2 / b_bias=0 / direct=3 / weightb=1 / open_gop=0 / weightp=2 / keyint=240 / keyint_min=23 / scenecut=40 / intra_refresh=0 / rc_lookahead=240 / rc=2pass / mbtree=0 / bitrate=18000 / ratetol=1.0 / qcomp=0.70 / qpmin=0 / qpmax=69 / qpstep=4 / cplxblur=20.0 / qblur=0.5 / vbv_maxrate=50000 / vbv_bufsize=62500 / nal_hrd=none / ip_ratio=1.40 / pb_ratio=1.30 / aq=1:0.80
Language : English
Default : Yes
Forced : No
Audio #1
ID : 2
Format : DTS
Format/Info : Digital Theater Systems
Codec ID : A_DTS
Duration : 1h 47mn
Bit rate mode : Constant
Bit rate : 1 510 Kbps
Channel(s) : 6 channels
Channel positions : Front: L C R, Side: L R, LFE
Sampling rate : 48.0 KHz
Bit depth : 24 bits
Compression mode : Lossy
Stream size : 1.13 GiB (7%)
Title : Dub
Language : Russian
Default : Yes
Forced : No
Audio #2
ID : 3
Format : DTS
Format/Info : Digital Theater Systems
Codec ID : A_DTS
Duration : 1h 47mn
Bit rate mode : Constant
Bit rate : 1 510 Kbps
Channel(s) : 6 channels
Channel positions : Front: L C R, Side: L R, LFE
Sampling rate : 48.0 KHz
Bit depth : 24 bits
Compression mode : Lossy
Stream size : 1.13 GiB (7%)
Title : Original
Language : English
Default : No
Forced : No
Text #1
ID : 4
Format : UTF-8
Codec ID : S_TEXT/UTF8
Codec ID/Info : UTF-8 Plain Text
Language : Russian
Default : No
Forced : No
Text #2
ID : 5
Format : UTF-8
Codec ID : S_TEXT/UTF8
Codec ID/Info : UTF-8 Plain Text
Language : English
Default : No
Forced : No
Menu
00:00:00.000 : en:00:00:00.000
00:06:25.635 : en:00:06:25.635
00:10:23.164 : en:00:10:23.164
00:16:40.124 : en:00:16:40.124
00:20:07.665 : en:00:20:07.665
00:25:02.251 : en:00:25:02.251
00:29:10.958 : en:00:29:10.958
00:35:35.425 : en:00:35:35.425
00:40:15.622 : en:00:40:15.622
00:46:49.724 : en:00:46:49.724
00:50:58.514 : en:00:50:58.514
00:55:45.634 : en:00:55:45.634
00:58:55.824 : en:00:58:55.824
01:05:51.322 : en:01:05:51.322
01:09:30.625 : en:01:09:30.625
01:13:32.700 : en:01:13:32.700
01:19:58.544 : en:01:19:58.544
01:27:01.091 : en:01:27:01.091
01:35:40.985 : en:01:35:40.985
01:40:42.328 : en:01:40:42.328

x264 [info]

---[Information] [13.09.2013 17:07:56] raw [info]: 1916x800p 1:1 @ 24000/1001 fps (cfr)
---[Information] [13.09.2013 17:07:56] x264 [info]: using SAR=1/1
---[Information] [13.09.2013 17:07:56] x264 [info]: using cpu capabilities: MMX2 SSE2Fast SSSE3 SSE4.2 AVX
---[Information] [13.09.2013 17:07:56] x264 [info]: profile High, level 4.1
---[Information] [14.09.2013 23:37:51] x264 [info]: frame I:1815 Avg QP:13.95 size:373952
---[Information] [14.09.2013 23:37:51] x264 [info]: frame P:30439 Avg QP:14.93 size:143275
---[Information] [14.09.2013 23:37:51] x264 [info]: frame B:121849 Avg QP:17.41 size: 77258
---[Information] [14.09.2013 23:37:51] x264 [info]: consecutive B-frames: 2.5% 2.5% 4.5% 4.9% 12.6% 64.3% 5.9% 0.7% 1.9%
---[Information] [14.09.2013 23:37:51] x264 [info]: mb I I16..4: 45.1% 28.1% 26.8%
---[Information] [14.09.2013 23:37:51] x264 [info]: mb P I16..4: 4.8% 21.8% 1.9% P16..4: 19.8% 27.3% 15.5% 0.0% 0.0% skip: 9.0%
---[Information] [14.09.2013 23:37:51] x264 [info]: mb B I16..4: 0.4% 6.4% 0.1% B16..8: 34.0% 22.6% 6.1% direct:11.1% skip:19.2% L0:44.0% L1:40.1% BI:15.9%
---[Information] [14.09.2013 23:37:51] x264 [info]: 8x8 transform intra:78.9% inter:45.6%
---[Information] [14.09.2013 23:37:51] x264 [info]: direct mvs spatial:97.1% temporal:2.9%
---[Information] [14.09.2013 23:37:51] x264 [info]: coded y,uvDC,uvAC intra: 99.0% 98.1% 95.2% inter: 53.7% 49.9% 29.0%
---[Information] [14.09.2013 23:37:51] x264 [info]: i16 v,h,dc,p: 6% 1% 40% 52%
---[Information] [14.09.2013 23:37:51] x264 [info]: i8 v,h,dc,ddl,ddr,vr,hd,vl,hu: 9% 7% 20% 9% 12% 11% 10% 10% 12%
---[Information] [14.09.2013 23:37:51] x264 [info]: i4 v,h,dc,ddl,ddr,vr,hd,vl,hu: 9% 8% 8% 10% 14% 13% 13% 11% 13%
---[Information] [14.09.2013 23:37:51] x264 [info]: i8c dc,h,v,p: 65% 10% 10% 15%
---[Information] [14.09.2013 23:37:51] x264 [info]: Weighted P-Frames: Y:1.5% UV:0.7%
---[Information] [14.09.2013 23:37:51] x264 [info]: ref P L0: 41.9% 8.7% 28.4% 9.2% 11.1% 0.7% 0.0%
---[Information] [14.09.2013 23:37:51] x264 [info]: ref B L0: 73.9% 18.7% 5.6% 1.8%
---[Information] [14.09.2013 23:37:51] x264 [info]: ref B L1: 91.6% 8.4%
---[Information] [14.09.2013 23:37:51] x264 [info]: kb/s:17990.15
---[Information] [14.09.2013 23:37:51] encoded 154103 frames, 1.40 fps, 17990.15 kb/s

Скриншот c названием фильма

Скриншоты

Source vs Rip




Скачать

Скачать торрент!

Как скачивать? · Что такое торрент? · Рейтинг и ограничения

Сайт не распространяет и не хранит электронные версии произведений, а лишь предоставляет доступ к создаваемому пользователями каталогу ссылок на торрент-файлы, которые содержат только списки хеш-сумм

[Профиль] [ЛС]
Показать сообщения:    
Ответить на тему

Текущее время: Сегодня 18:29

Часовой пояс: GMT + 4



Вы не можете начинать темы
Вы не можете отвечать на сообщения
Вы не можете редактировать свои сообщения
Вы не можете удалять свои сообщения
Вы не можете голосовать в опросах
Вы не можете прикреплять файлы к сообщениям
Вы не можете скачивать файлы