Война миров Z / World War Z (Марк Форстер / Marc Forster) [2013, США, ужасы, фантастика, боевик, триллер, BDRip] [Extended] Dub BD (со вст. Dub альтернативный) + Original Eng + Subs

Ответить на тему
 
Автор Сообщение

user ®

Стаж: 7 лет 7 месяцев

Сообщений: 20008

Пост Пост: #1 от 02-Окт-2013 10:20

[Цитировать]

Война миров Z / World War Z
Расширенная версия / Extended Cut
«Remember Philly!»
- Страна: США / Apparatus Productions, GK Films, Hemisphere Media Capital, Paramount Pictures
Жанр: ужасы, фантастика, боевик, триллер
Год выпуска: 2013
Продолжительность: 02:03:03
Перевод: Профессиональный (дублированный) лицензия BD (со вставками альтернативного дубляжа)
Cубтитры: русские (full) + английские (full) внешние
Оригинальная аудиодорожка: английский
Режиссёр: Марк Форстер / Marc Forster
В ролях: Брэд Питт, Мирей Инос, Стерлинг Джеринс, Эбигейл Харгров, Даниэла Картес, Фана Мокоэна, Пьерфранческо Фавино, Питер Капальди, Мориц Бляйбтрой, Рут Негга, Джеймс Бэдж Дэйл, Мэттью Фокс, Луди Бокен, Дэвид Морc, Элайес Габел, Питер Капальди.
Описание: Сотрудник ООН Джерри Лэйн наперегонки со временем пытается остановить заражение, способное полностью истребить человечество.-Рейтинг
imdb.com: 7.1 (174 111)
kinopoisk.ru: 7.230 (48 053)
MPAA: - детям до 13 лет просмотр не желателен-Сэмпл: http://multi-up.com/908836-Качество видео: BDRip [Vojna.mirov-Z.2013.MPEG-4-AVC.EXTENDED.BluRay-Remux.1080p.mkv]
Формат видео: AVI
Видео: XviD build 65, 720x304 (2.37:1), 23.976 fps, ~1755 kbps avg, 0.334 bit/pixel
Аудио 1: 48 kHz, AC3 Dolby Digital, 3/2 (L,C,R,l,r) + LFE ch, ~384 kbps avg (DUB+Dub)
Аудио 2: 48 kHz, AC3 Dolby Digital, 3/2 (L,C,R,l,r) + LFE ch, ~384 kbps avg (ENG)
Формат субтитров: softsub (SRT)
-

MediaInfo

General
Complete name : D:\World.War.Z.2013.Extended.DUAL.BDRip.2,18Gb.XviD.AC3\World.War.Z.2013.Extended.DUAL.BDRip.2,18Gb.XviD.AC3.avi
Format : AVI
Format/Info : Audio Video Interleave
Format profile : OpenDML
File size : 2.18 GiB
Duration : 2h 3mn
Overall bit rate : 2 541 Kbps
Writing application : VirtualDubModRus 1.5.10.2 (build 2542/release)
Writing library : VirtualDubMod build 2542/release
Video
ID : 0
Format : MPEG-4 Visual
Format profile : Advanced Simple@L5
Format settings, BVOP : 1
Format settings, QPel : No
Format settings, GMC : No warppoints
Format settings, Matrix : Custom
Codec ID : XVID
Codec ID/Hint : XviD
Duration : 2h 3mn
Bit rate : 1 755 Kbps
Width : 720 pixels
Height : 304 pixels
Display aspect ratio : 2.35:1
Frame rate : 23.976 fps
Color space : YUV
Chroma subsampling : 4:2:0
Bit depth : 8 bits
Scan type : Progressive
Compression mode : Lossy
Bits/(Pixel*Frame) : 0.334
Stream size : 1.51 GiB (69%)
Writing library : XviD 65
Audio #1
ID : 1
Format : AC-3
Format/Info : Audio Coding 3
Mode extension : CM (complete main)
Format settings, Endianness : Big
Codec ID : 2000
Duration : 2h 3mn
Bit rate mode : Constant
Bit rate : 384 Kbps
Channel(s) : 6 channels
Channel positions : Front: L C R, Side: L R, LFE
Sampling rate : 48.0 KHz
Bit depth : 16 bits
Compression mode : Lossy
Stream size : 338 MiB (15%)
Alignment : Split accross interleaves
Interleave, duration : 42 ms (1.00 video frame)
Interleave, preload duration : 500 ms
Title : DUB+Dub
Audio #2
ID : 2
Format : AC-3
Format/Info : Audio Coding 3
Mode extension : CM (complete main)
Format settings, Endianness : Big
Codec ID : 2000
Duration : 2h 3mn
Bit rate mode : Constant
Bit rate : 384 Kbps
Channel(s) : 6 channels
Channel positions : Front: L C R, Side: L R, LFE
Sampling rate : 48.0 KHz
Bit depth : 16 bits
Compression mode : Lossy
Stream size : 338 MiB (15%)
Alignment : Split accross interleaves
Interleave, duration : 42 ms (1.00 video frame)
Interleave, preload duration : 500 ms
Title : ENG

Скриншоты

Скачать

Скачать торрент!

Как скачивать? · Что такое торрент? · Рейтинг и ограничения

Сайт не распространяет и не хранит электронные версии произведений, а лишь предоставляет доступ к создаваемому пользователями каталогу ссылок на торрент-файлы, которые содержат только списки хеш-сумм

[Профиль] [ЛС]
Показать сообщения:    
Ответить на тему

Текущее время: Сегодня 00:14

Часовой пояс: GMT + 4



Вы не можете начинать темы
Вы не можете отвечать на сообщения
Вы не можете редактировать свои сообщения
Вы не можете удалять свои сообщения
Вы не можете голосовать в опросах
Вы не можете прикреплять файлы к сообщениям
Вы не можете скачивать файлы