Рождественский подарок Диснея / A Disney Christmas gift [1982, Анимация, VHSRip] Dub РТР

Ответить на тему
 
Автор Сообщение

user ®

Стаж: 11 лет

Сообщений: 15145

Пост Пост: #1 от 01-Окт-2013 17:15

[Цитировать]

Рождественский подарок Диснея / A Disney Christmas gift
Страна: США
Жанр: Анимация
Продолжительность: 42:52:00
Год выпуска: 1982
Перевод: Профессиональный (дублированный) РТР
Русские субтитры: нет
Описание: Рождественский подарок Диснея - Рождественский выпуск, который транслировался на телеканале РТР. Специальный Рождественский выпуск представляет собой несколько короткометражных мультфильмов Диснея, объединеных в едином монтаже, он включает в себя фрагменты следующих мультфильмов:
"Once Upon a Wintertime" - Melody Time (1948)
"Pluto's Christmas Tree" - Mickey Mouse, Pluto and Chip 'n Dale (1951)
Bambi and Thumper - Bambi (1942)
Peter Pan and the Darling children - Peter Pan (1953)
"The Clock Watcher" - Donald Duck (1945)
Cinderella and Fairy Godmother - Cinderella (1950)
"The Night Before Christmas" - Silly Symphonies (1933)
Доп. информация: ФИЛЬМ ИЗ РУБРИКИ ДИСНЕЙ ПО ПЯТНИЦАМ
http://cyclowiki.org/wiki/%D0%94%D0%B8%D1%81%D0%BD%...1%86%D0%B0%D0%BC
За мультфильм благодарим хорошего человека по имени KinoprojectionisT

Качество: VHSRip
Формат: MPG
Видео: MPEG2 Video 720x576 (4:3) 25fps
Аудио: MPEG Audio 48000Hz stereo 224kbps
Субтитры: отсутствуют

Подробные технические данные

Рождественский подарок Диснея.mpgFormat : MPEG-PSFile size : 1.62 GiBDuration : 42mn 51sOverall bit rate mode : VariableOverall bit rate : 5 405 KbpsWriting library : Created with Nero
VideoID : 224 (0xE0)Format : MPEG VideoFormat version : Version 2Format profile : Main@MainFormat settings, BVOP : NoFormat settings, Matrix : DefaultFormat settings, GOP : M=3, N=15Duration : 42mn 51sBit rate mode : VariableBit rate : 5 073 KbpsMaximum bit rate : 9 610 KbpsWidth : 720 pixelsHeight : 576 pixelsDisplay aspect ratio : 4:3Frame rate : 25.000 fpsStandard : PALColor space : YUVChroma subsampling : 4:2:0Bit depth : 8 bitsScan type : InterlacedScan order : Top Field FirstCompression mode : LossyBits/(Pixel*Frame) : 0.489Time code of first frame : 00:00:00:00Time code source : Group of pictures headerStream size : 1.52 GiB (94%)Writing library : Ahead Nero
AudioID : 192 (0xC0)Format : MPEG AudioFormat version : Version 1Format profile : Layer 2Duration : 42mn 51sBit rate mode : ConstantBit rate : 224 KbpsChannel count : 2 channelsSampling rate : 48.0 KHzCompression mode : LossyDelay relative to video : 24msStream size : 68.7 MiB (4%)

Скриншоты


Скачать

Скачать торрент! Рождественский подарок Диснея / A Disney Christmas gift [1982, Анимация, VHSRip] Dub РТР

Как скачивать? · Что такое торрент? · Рейтинг и ограничения

Сайт не распространяет и не хранит электронные версии произведений, а лишь предоставляет доступ к создаваемому пользователями каталогу ссылок на торрент-файлы, которые содержат только списки хеш-сумм

[Профиль] [ЛС]
Показать сообщения:    
Ответить на тему

Текущее время: Сегодня 19:10

Часовой пояс: GMT + 4



Вы не можете начинать темы
Вы не можете отвечать на сообщения
Вы не можете редактировать свои сообщения
Вы не можете удалять свои сообщения
Вы не можете голосовать в опросах
Вы не можете прикреплять файлы к сообщениям
Вы не можете скачивать файлы