Офицер и джентльмен / An Officer and a Gentleman (Тейлор Хэкфорд / Taylor Hackford) [1982, США, драма, BDRemux 1080p] MVO + 4x AVO + Original (Eng) + Sub (Rus, Eng)

Ответить на тему
 
Автор Сообщение

user ®

Стаж: 7 лет 7 месяцев

Сообщений: 20008

Пост Пост: #1 от 01-Окт-2013 17:15

[Цитировать]

Офицер и джентльмен / An Officer and a Gentleman- Страна: США
Жанр: драма
Год выпуска: 1982
Продолжительность: 02:04:17
Перевод:
- профессиональный (многоголосый, закадровый)
- авторский (одноголосый, закадровый) Ю. Живов
- авторский (одноголосый, закадровый) А. Михалев
- авторский (одноголосый, закадровый) А. Гаврилов
- авторский (одноголосый, закадровый) В. Горчаков
Cубтитры: русские, английские
Оригинальная аудиодорожка: английский
Режиссер: Тейлор Хэкфорд / Taylor Hackford
В ролях: Ричард Гир, Дебра Уингер, Дэвид Кит, Роберт Лоджа, Лиза Блаунт, Лиза Айлбакер, Луис Госсет мл., Тони Плана, Гарольд Сильвестр, Дэвид Карузо
Описание: После трех месяцев невыносимой муштры Зак вполне прочувствовал, что такое армейская дисциплина, и, несмотря на все предупреждения о коварстве местных девушек, якобы только и мечтающих, как бы заполучить себе в мужья летчика, Зак влюбляется в одну из них. Но, несмотря на все препятствия, герой фильма все же станет превосходным офицером и обретет настоящую любовь.
-Тип релиза: BDRemux
Контейнер: MKV
Видео: MPEG-4 AVC, 1920x1080, 16:9, 29966 kbps, 23,976 fps
Аудио:
1. Rus - AC3, 192 kbps, 48 kHz, 2.0 ch (MVO)
2. Rus - DTS-HD Master Audio, 5.1 / 48 kHz / 1978 kbps / 16-bit (DTS Core: 5.1 / 48 kHz / 1509 kbps / 16-bit)
3. Rus - AC3, 192 kbps, 48 kHz, 2.0 ch (А. Михалев)
4. Rus - AC3, 192 kbps, 48 kHz, 2.0 ch (А. Гаврилов)
5. Rus - AC3, 192 kbps, 48 kHz, 2.0 ch (В. Горчаков)
6. Eng - DTS-HD MA, 3343 kbps, 48 kHz, 5.1 ch (DTS Core: 5.1 / 48 kHz / 1509 kbps / 24-bit)
7. Eng - AC3, 192.00 kbps, 48 kHz, 2.0 ch (комментарии)
Формат субтитров: softsub (SRT)
Сэмпл: 265Mb-

MediaInfo

Общее
Уникальный идентификатор : 216837505799094339601407418666416863405 (0xA3216271C4C58BE9AA9B278B9447F8AD)
Полное имя : An Officer and a Gentleman (1982).mkv
Формат : Matroska
Версия формата : Version 2
Размер файла : 31,4 Гбайт
Продолжительность : 2 ч. 4 м.
Режим общего битрейта : Переменный
Общий поток : 36,2 Мбит/сек
Дата кодирования : UTC 2013-09-28 20:54:57
Программа кодирования : mkvmerge v3.3.0 ('Language') built on Mar 24 2010 14:59:24
Библиотека кодирования : libebml v0.8.0 + libmatroska v0.9.0
Видео
Идентификатор : 1
Формат : AVC
Формат/Информация : Advanced Video Codec
Профиль формата : High@L4.1
Параметр CABAC формата : Да
Параметр ReFrames формата : 2 кадра
Параметр GOP формата : M=1, N=10
Идентификатор кодека : V_MPEG4/ISO/AVC
Продолжительность : 2 ч. 4 м.
Вид битрейта : Переменный
Ширина : 1920 пикселей
Высота : 1080 пикселей
Соотношение сторон : 16:9
Режим частоты кадров : Постоянный
Частота кадров : 23,976 кадра/сек
Цветовое пространство : YUV
Субдискретизация насыщенности : 4:2:0
Битовая глубина : 8 бит
Тип развёртки : Прогрессивная
Default : Да
Forced : Нет
Аудио #1
Идентификатор : 2
Формат : AC-3
Формат/Информация : Audio Coding 3
Расширение режима : CM (complete main)
Параметр Endianness формата : Big
Идентификатор кодека : A_AC3
Продолжительность : 2 ч. 4 м.
Вид битрейта : Постоянный
Битрейт : 192 Кбит/сек
Каналы : 2 канала
Расположение каналов : Front: L R
Частота : 48,0 КГц
Битовая глубина : 16 бит
Метод сжатия : С потерями
Размер потока : 171 Мбайт (1%)
Заголовок : AC3 2 ch 192 kbps MVO
Язык : Russian
Default : Нет
Forced : Нет
Аудио #2
Идентификатор : 3
Формат : DTS
Формат/Информация : Digital Theater Systems
Профиль формата : MA / Core
Режим : 16
Параметр Endianness формата : Big
Идентификатор кодека : A_DTS
Продолжительность : 2 ч. 4 м.
Вид битрейта : Переменный
Битрейт : Неизвестно / 1509 Кбит/сек
Каналы : 6 каналов
Расположение каналов : Front: L C R, Side: L R, LFE
Частота : 48,0 КГц
Битовая глубина : 16 бит
Метод сжатия : Без потерь / Lossy
Задержка видео : 1 с. 0 мс.
Заголовок : DTS-HD 5.1 ch 1536 kbps Юрий Живов
Язык : Russian
Default : Нет
Forced : Нет
Аудио #3
Идентификатор : 4
Формат : AC-3
Формат/Информация : Audio Coding 3
Расширение режима : CM (complete main)
Параметр Endianness формата : Big
Идентификатор кодека : A_AC3
Продолжительность : 2 ч. 4 м.
Вид битрейта : Постоянный
Битрейт : 192 Кбит/сек
Каналы : 2 канала
Расположение каналов : Front: L R
Частота : 48,0 КГц
Битовая глубина : 16 бит
Метод сжатия : С потерями
Размер потока : 171 Мбайт (1%)
Заголовок : AC3 2 ch 192 kbps Алексей Михалев
Язык : Russian
Default : Нет
Forced : Нет
Аудио #4
Идентификатор : 5
Формат : AC-3
Формат/Информация : Audio Coding 3
Расширение режима : CM (complete main)
Параметр Endianness формата : Big
Идентификатор кодека : A_AC3
Продолжительность : 2 ч. 4 м.
Вид битрейта : Постоянный
Битрейт : 192 Кбит/сек
Каналы : 2 канала
Расположение каналов : Front: L R
Частота : 48,0 КГц
Битовая глубина : 16 бит
Метод сжатия : С потерями
Размер потока : 171 Мбайт (1%)
Заголовок : AC3 2 ch 192 kbps Андрей Гаврилов
Язык : Russian
Default : Нет
Forced : Нет
Аудио #5
Идентификатор : 6
Формат : AC-3
Формат/Информация : Audio Coding 3
Расширение режима : CM (complete main)
Параметр Endianness формата : Big
Идентификатор кодека : A_AC3
Продолжительность : 2 ч. 4 м.
Вид битрейта : Постоянный
Битрейт : 192 Кбит/сек
Каналы : 2 канала
Расположение каналов : Front: L R
Частота : 48,0 КГц
Битовая глубина : 16 бит
Метод сжатия : С потерями
Размер потока : 171 Мбайт (1%)
Заголовок : AC3 2 ch 192 kbps Василий Горчаков
Язык : Russian
Default : Нет
Forced : Нет
Аудио #6
Идентификатор : 7
Формат : DTS
Формат/Информация : Digital Theater Systems
Профиль формата : MA / Core
Режим : 16
Параметр Endianness формата : Big
Идентификатор кодека : A_DTS
Продолжительность : 2 ч. 4 м.
Вид битрейта : Переменный
Битрейт : Неизвестно / 1509 Кбит/сек
Каналы : 6 каналов
Расположение каналов : Front: L C R, Side: L R, LFE
Частота : 48,0 КГц
Битовая глубина : 24 бит
Метод сжатия : Без потерь / Lossy
Заголовок : DTS-HD 5.1 ch 1509 Kbps
Язык : English
Default : Нет
Forced : Нет
Аудио #7
Идентификатор : 8
Формат : AC-3
Формат/Информация : Audio Coding 3
Расширение режима : CM (complete main)
Параметр Endianness формата : Big
Идентификатор кодека : A_AC3
Продолжительность : 2 ч. 4 м.
Вид битрейта : Постоянный
Битрейт : 192 Кбит/сек
Каналы : 2 канала
Расположение каналов : Front: L R
Частота : 48,0 КГц
Битовая глубина : 16 бит
Метод сжатия : С потерями
Размер потока : 171 Мбайт (1%)
Заголовок : Commentary by Taylor Hackford
Язык : English
Default : Нет
Forced : Нет
Текст #1
Идентификатор : 9
Формат : UTF-8
Идентификатор кодека : S_TEXT/UTF8
Идентификатор кодека/Информация : UTF-8 Plain Text
Язык : Russian
Default : Нет
Forced : Нет
Текст #2
Идентификатор : 10
Формат : UTF-8
Идентификатор кодека : S_TEXT/UTF8
Идентификатор кодека/Информация : UTF-8 Plain Text
Язык : English
Default : Нет
Forced : Нет
Текст #3
Идентификатор : 11
Формат : UTF-8
Идентификатор кодека : S_TEXT/UTF8
Идентификатор кодека/Информация : UTF-8 Plain Text
Заголовок : SDH
Язык : English
Default : Нет
Forced : Нет
Меню #1
00:00:00.000 : en:00:00:00.000
00:09:01.791 : en:00:09:01.791
00:15:51.784 : en:00:15:51.784
00:21:15.566 : en:00:21:15.566
00:29:42.280 : en:00:29:42.280
00:38:29.641 : en:00:38:29.641
00:49:59.997 : en:00:49:59.997
00:56:12.286 : en:00:56:12.286
01:05:24.379 : en:01:05:24.379
01:17:03.118 : en:01:17:03.118
01:28:15.290 : en:01:28:15.290
01:30:52.280 : en:01:30:52.280
01:48:31.755 : en:01:48:31.755
01:54:55.514 : en:01:54:55.514
01:59:41.716 : en:01:59:41.716
Меню #2
00:00:00.000 : :00:00:00.000
00:09:02.834 : :00:09:02.834
00:15:52.827 : :00:15:52.827
00:21:16.609 : :00:21:16.609
00:29:43.323 : :00:29:43.323
00:38:30.683 : :00:38:30.683
00:50:01.040 : :00:50:01.040
00:56:13.328 : :00:56:13.328
01:05:25.463 : :01:05:25.463
01:17:04.161 : :01:17:04.161
01:28:16.333 : :01:28:16.333
01:30:51.154 : :01:30:51.154
01:48:32.798 : :01:48:32.798
01:54:56.556 : :01:54:56.556
01:59:42.759 : :01:59:42.759

Скриншоты


Скачать

Скачать торрент!

Как скачивать? · Что такое торрент? · Рейтинг и ограничения

Сайт не распространяет и не хранит электронные версии произведений, а лишь предоставляет доступ к создаваемому пользователями каталогу ссылок на торрент-файлы, которые содержат только списки хеш-сумм

[Профиль] [ЛС]
Показать сообщения:    
Ответить на тему

Текущее время: Сегодня 12:31

Часовой пояс: GMT + 4



Вы не можете начинать темы
Вы не можете отвечать на сообщения
Вы не можете редактировать свои сообщения
Вы не можете удалять свои сообщения
Вы не можете голосовать в опросах
Вы не можете прикреплять файлы к сообщениям
Вы не можете скачивать файлы