Невероятный Бёрт Уандерстоун / The Incredible Burt Wonderstone (Дон Скардино / Don Scardino) [2013, США, комедия, BDRip] MVO (CEE) + Sub (Rus Forced)

Ответить на тему
 
Автор Сообщение

user ®

Стаж: 7 лет 7 месяцев

Сообщений: 20008

Пост Пост: #1 от 01-Окт-2013 17:15

[Цитировать]

Невероятный Бёрт Уандерстоун / The Incredible Burt Wonderstone
Год выпуска: 2013
Страна: США
Жанр: комедия
Продолжительность: 01:40:18
Перевод: Профессиональный (многоголосый, закадровый) - CEE
Субтитры: русские (forced) - softsub (SRT)
Режиссер: Дон Скардино / Don Scardino
В ролях: Стив Карелл (Burt Wonderstone), Стив Бушеми (Anton Marvelton), Оливия Уайлд (Jane), Джим Керри (Steve Gray), Джеймс Гандольфини (Doug Munny), Алан Аркин (Rance Holloway), Джей Мор (Rick the Implausible), Михаэль Хербиг (Lucius Belvedere), Мэйсон Кук (Young Burt), Люк Ванек (Young Anton), Захари Гордан (Bully), Ричард Вольфф (играет самого себя)--Описание: Фильм рассказывает историю двух фокусников-конкурентов в Лас-Вегасе. Берт Уандерстоун однажды во время исполнения номера лишается напарника, и все оставшееся время пытается вернуть себе мотивацию и вернуться к любимому занятию.-Рейтинг
kinopoisk.ru: 6.221 (6 848)
imdb.com: 5.9 (33 508)
-Качество:BDRip
Формат: AVI //SAMPLE//
Видео: 720x304 (2.37:1), 23.976 fps, XviD build 65 ~1622 kbps avg, 0.31 bit/pixel
Аудио: 48 kHz, AC3 Dolby Digital, 3/2 (L,C,R,l,r) + LFE ch, ~448 kbps

MediaInfo

Общее
Полное имя : F:\Video\AVI\Films\Neveroyatnyj.Bert.Uanderstoun.2013.RUS.BDRip.XviD.AC3.-AllFilms\Neveroyatnyj.Bert.Uanderstoun.2013.RUS.BDRip.XviD.AC3.-AllFilms.avi
Формат : AVI
Формат/Информация : Audio Video Interleave
Размер файла : 1,46 Гбайт
Продолжительность : 1 ч. 40 м.
Общий поток : 2080 Кбит/сек
Название фильма : Невероятный Бёрт Уандерстоун / The Incredible Burt Wonderstone (2013)
Режиссёр : Shevon (Blu-Ray Disk)
Программа кодирования : VirtualDubMod 1.5.10.3 | www.virtualdub-fr.org || (build 2550/release)
Правообладатель : AllFilms
Видео
Идентификатор : 0
Формат : MPEG-4 Visual
Профиль формата : Advanced Simple@L5
Параметр BVOP формата : 1
Параметр QPel формата : Нет
Параметр GMC формата : Без точки перехода
Параметр матрицы формата : Выборочная
Идентификатор кодека : XVID
Идентификатор кодека/Подсказка : XviD
Продолжительность : 1 ч. 40 м.
Битрейт : 1623 Кбит/сек
Ширина : 720 пикселей
Высота : 304 пикселя
Соотношение сторон : 2,35:1
Частота кадров : 23,976 кадра/сек
Цветовое пространство : YUV
Субдискретизация насыщенности : 4:2:0
Битовая глубина : 8 бит
Тип развёртки : Прогрессивная
Метод сжатия : С потерями
Бит/(Пиксели*Кадры) : 0.309
Размер потока : 1,14 Гбайт (78%)
Библиотека кодирования : XviD 65
Аудио
Идентификатор : 1
Формат : AC-3
Формат/Информация : Audio Coding 3
Расширение режима : CM (complete main)
Параметр Endianness формата : Big
Идентификатор кодека : 2000
Продолжительность : 1 ч. 40 м.
Вид битрейта : Постоянный
Битрейт : 448 Кбит/сек
Каналы : 6 каналов
Расположение каналов : Front: L C R, Side: L R, LFE
Частота : 48,0 КГц
Битовая глубина : 16 бит
Метод сжатия : С потерями
Размер потока : 321 Мбайт (22%)
Выравнивание : Разделение по промежуткам
Продолжительность промежутка : 42 мс. (1,00 видеокадр)
Время предзагрузки промежутка : 500 мс.

Скриншоты

-
Скачать

Скачать торрент!

Как скачивать? · Что такое торрент? · Рейтинг и ограничения

Сайт не распространяет и не хранит электронные версии произведений, а лишь предоставляет доступ к создаваемому пользователями каталогу ссылок на торрент-файлы, которые содержат только списки хеш-сумм

[Профиль] [ЛС]
Показать сообщения:    
Ответить на тему

Текущее время: Сегодня 22:13

Часовой пояс: GMT + 4



Вы не можете начинать темы
Вы не можете отвечать на сообщения
Вы не можете редактировать свои сообщения
Вы не можете удалять свои сообщения
Вы не можете голосовать в опросах
Вы не можете прикреплять файлы к сообщениям
Вы не можете скачивать файлы