G.I. Joe: Бросок кобры 2 / G.I. Joe: Retaliation (Джон М. Чу / Jon M. Chu) [2013, США, фантастика, боевик, триллер, приключения, BDRip] [Расширенная версия / Extended Action Cut] AVO (Гаврилов)

Ответить на тему
 
Автор Сообщение

user ®

Стаж: 7 лет 7 месяцев

Сообщений: 20008

Пост Пост: #1 от 01-Окт-2013 17:15

[Цитировать]

G.I. Joe: Бросок кобры 2
G.I. Joe: Retaliation
--Страна: США
Жанр: фантастика, боевик, триллер, приключения
Год выпуска: 2013
Продолжительность: 02:03:00-Перевод: Авторский (одноголосый, закадровый) - Гаврилов
Cубтитры: нет
Режиссер: Джон М. Чу / Jon M. Chu-В ролях: Дуэйн Джонсон, Эдрианн Палики, Брюс Уиллис, Рэй Парк, Ли Бён Хон, Д.Дж. Котрона, Джонатан Прайс, Элоди Юнг, Ченнинг Татум, Люк Брейси-Описание: Секретное подразделение «G.I. Joe» продолжает борьбу с самыми опасными преступными группировками, стремящимися к власти во всем мире. После очередного удачно выполненного задания на бойцов подразделения совершено нападение, после которого многие сотрудники погибают. Оставшиеся в живых начинают собственное расследование этого дела. В ходе расследования они выходят на след людей, причастных к нападению, который выводит их на Белый Дом. Под видом президента США скрывается очень опасный преступник, командир террористической группировки «Кобра», который и отдал приказ уничтожить их спецотряд. С помощью генерала Джозефа Колтона бойцы секретного подразделения начинают смертельную битву с террористами...-Качество видео: BDRip (спасибо PiratCa за исходник - G.I. Joe Retaliation 2013 Extended 1080p BDRemux AVC-HDTracker )
Формат видео: AVI
Видео: XviD, 704x288 (2.44:1), 23.976 fps, 1262 kbps avg
Аудио: Русская АVO - AC3 Dolby Digital, 48 kHz, 448 kbps, 3/2 (L,C,R,l,r) + LFE ch
!!!!!!!!!!!!!!!!!!!!!!!!!!! !!!!!!!!!!!!!!!!!!!!!!!!!СЭМПЛ!!!!!!!!!!!!!!!!!!!!!!!!!!

MediaInfo

Общее
Полное имя                       : Brosok.Kobry.II.2013.XviD.BDRip.MetionInka.AVO[Gavrilov].avi
Формат                           : AVI
Формат/Информация                : Audio Video Interleave
Размер файла                     : 1,48 Гбайт
Продолжительность                : 2 ч. 3 м.
Общий поток                      : 1720 Кбит/сек
Название фильма                  : Brosok.Kobry.II.2013.XviD.BDRip.MetionInka.AVO[Gavrilov]
Режиссёр                         : rip - MetionInka
Жанр                             : Action/Adventure/Sci-Fi
Программа кодирования            : VirtualDubMod 1.5.10.3 | www.virtualdub-fr.org || (build 2550/release)
Формат оригинала/Имя             : G.I. Joe: Retaliation Extended
Правообладатель                  : ***
Примечание                       : RusAVO [Gavrilov] - HDTracker
Видео
Идентификатор                    : 0
Формат                           : MPEG-4 Visual
Профиль формата                  : Advanced Simple@L5
Параметр BVOP формата            : 2
Параметр QPel формата            : Нет
Параметр GMC формата             : Без точки перехода
Параметр матрицы формата         : Выборочная
Идентификатор кодека             : XVID
Идентификатор кодека/Подсказка   : XviD
Продолжительность                : 2 ч. 3 м.
Битрейт                          : 1263 Кбит/сек
Ширина                           : 704 пикселя
Высота                           : 288 пикселей
Соотношение сторон               : 2,40:1
Частота кадров                   : 23,976 кадра/сек
Цветовое пространство            : YUV
Субдискретизация насыщенности    : 4:2:0
Битовая глубина                  : 8 бит
Тип развёртки                    : Прогрессивная
Метод сжатия                     : С потерями
Бит/(Пиксели*Кадры)              : 0.260
Размер потока                    : 1,08 Гбайт (73%)
Библиотека кодирования           : XviD 73
Аудио
Идентификатор                    : 1
Формат                           : AC-3
Формат/Информация                : Audio Coding 3
Расширение режима                : CM (complete main)
Идентификатор кодека             : 2000
Продолжительность                : 2 ч. 3 м.
Вид битрейта                     : Постоянный
Битрейт                          : 448 Кбит/сек
Каналы                           : 6 каналов
Расположение каналов             : Front: L C R, Side: L R, LFE
Частота                          : 48,0 КГц
Битовая глубина                  : 16 бит
Метод сжатия                     : С потерями
Размер потока                    : 394 Мбайт (26%)
Выравнивание                     : Разделение по промежуткам
Продолжительность промежутка     : 42  мс. (1,00 видеокадр)
Время предзагрузки промежутка    : 500  мс.
.

Скриншот с названием

Скриншоты

Благодарности

За перевод Гаврилова большое спасибо пользователям форума forum.hdtracker: -Джосс-, Brown15, chef&chef, Chistobaev, denis_mgn_1987, dunhill200, edsz, feldeger, fly32, foxlight, GaryH, Guyver, Hattori Hanzo, karantin66, kinobbk, kovadim, KpucTo161, Letyoha3, Loki, milocerd0v, nimph, Pain_70, rydanes, SavineX, shitman82, Skibichok , therox, v111o, vadamk, Vimann, Xerman13, YoGuRt-82, zeleniydzhan, ZeRoNe, Диммон, _MyxAmoP_ , lexal, hulahup, carter64, Tio, Role, Tehnar, Rolly Tyler..
Спасибо KpucTo161 за работу со звуком по наложению чистого голоса на центр.канал оригинальной DTS-HD,
!!!!!!!!!!!!!!!!!!!!!!!!!!!!!!!!!!!!!
Скачать

Скачать торрент!

Как скачивать? · Что такое торрент? · Рейтинг и ограничения

Сайт не распространяет и не хранит электронные версии произведений, а лишь предоставляет доступ к создаваемому пользователями каталогу ссылок на торрент-файлы, которые содержат только списки хеш-сумм

[Профиль] [ЛС]
Показать сообщения:    
Ответить на тему

Текущее время: Сегодня 10:47

Часовой пояс: GMT + 4



Вы не можете начинать темы
Вы не можете отвечать на сообщения
Вы не можете редактировать свои сообщения
Вы не можете удалять свои сообщения
Вы не можете голосовать в опросах
Вы не можете прикреплять файлы к сообщениям
Вы не можете скачивать файлы