Кровавый четверг / Thursday (Скип Вудс / Skip Woods) [1998, США, боевик, триллер, драма, криминал, HDTVRip 720p] 3x AVO + MVO + Sub Rus, Eng + Original Eng

Ответить на тему
 
Автор Сообщение

user ®

Стаж: 7 лет 7 месяцев

Сообщений: 20008

Пост Пост: #1 от 01-Окт-2013 12:35

[Цитировать]

Кровавый четверг / Thursday
Страна: США
Студия: PolyGram Filmed Entertainment
Жанр: боевик, триллер, драма, криминал
Год выпуска: 1998
Продолжительность: 01:24:07
Перевод 1: Авторский (одноголосый закадровый) Юрий Живов
Перевод 2: Авторский (одноголосый закадровый) - Гоблин - New
Перевод 3: Авторский (одноголосый закадровый) - Гоблин - Old
Перевод 4: Профессиональный (многоголосый закадровый)
Cубтитры: Русские (3 варианта: по MVO, по старому и новому переводу Гоблина),, английские
Оригинальная аудиодорожка: английский
Режиссер: Скип Вудс / Skip Woods
В ролях: Томас Джейн /Thomas Jane/, Аарон Экхарт /Aaron Eckhart/, Дженнифер Билз /Jennifer Beals/, Гленн Пламмер /Glenn Plummer/, Пола Маршалл /Paula Marshall/, Микки Рурк /Mickey Rourke/, Майкл Джетер /Michael Jeter/, Полина Поризкова /Paulina Porizkova/, Джеймс Ле Грос /James Le Gros/
Описание: Неудачный четверг выдался у Кэйси, собирающегося вместе со своей женой усыновить ребенка. Как раз в этот день должен был прийти чиновник из департамента усыновления, а заявился Ник, его старый друг по бандитским делам (Надо сказать, что Кэйси "завязал"), оставил на хранение кейс и одолжил машину. Обнаружив, что в кейсе спрятаны наркотики, Кэйси выбросил их в водопровод. После этого заявился чернокожий бандит, который, узнав о печальной судьбе наркоты, должен был застрелить Кэйси, но тот попросил напоследок покурить марихуаны и, воспользовавшись расслабленностью бандита, подвесил его вниз головой в подвале. Потом пришел чиновник из отдела усыновления, а затем сексапильная брюнетка в розовом платье. Домогаясь денег или наркотиков, она изнасиловала Кэйси. Ее застрелил еще один подоспевший "охотник" за товаром. Его Кэйси удалось вырубить сковородкой и подвесить все в том же подвале. После звонка раненого Ника, сообщившего, что он улетает, явился и полицейский (Рурк), у которого Ник украл деньги. Добавьте сюда банду негров, у которых Ник украл наркотики, и картина будет почти полной. Ну как, хватит неприятностей на один четверг? (Иванов М.)
--------------------------------------------------------------------------------
Оператор: Дени Ленуар /Denis Lenoir/
Сценарист: Скип Вудс /Skip Woods/
Продюсер: Алан Поул /Alan Poul/
Монтажер: Питер Шинк /Peter Schink/, Пол Трейо /Paul Trejo/
Композитор: Луна /Luna/
Художник: Крис Энтони Миллер /Chris Anthony Miller/
Костюмы: Марк Бриджес /Mark Bridges/
Кастинг: Кристин Шикс /Christine Sheaks/
--------------------------------------------------
КИНОПОИСК. RU
РЕЙТИНГ -7.999 оценки: 19 508
7,0/10 from 9 928 users
--------------------------------------------------
----------------
СЭМПЛ
----------------
Вгимание: скорость маленькая - 50 кб/с, но раздаю круглосуточно
--------------------------------------------------
Тип релиза: HDTVRip 720p
Контейнер: MKV
Видео: 1280 x712; 25.000 fps; ~ 4 715 Kbps; 0.207 Bits/Pixel
Аудио 1: Russian - 48 kHz, AC3 Dolby Digital, 2/0 (L,R) ch, ~192 kbps - Юрий Живов
Аудио 2: Russian - 48 kHz, AC3 Dolby Digital, 2/0 (L,R) ch, ~192 kbps - Гоблин - New
Аудио 3: Russian - 48 kHz, AC3 Dolby Digital, 2/0 (L,R) ch, ~192 kbps - Гоблин - Old
Аудио 4: Russian - 48 kHz, AC3 Dolby Digital, 2/0 (L,R) ch, ~192 kbps - MVO
Аудио 5: English - 48 kHz, AC3 Dolby Digital, 2/0 (L,R) ch, ~192 kbps - Original
Формат субтитров: все UTF-8

MediaInfo

General
Complete name : F:\EXCLUZIVE=19\КРОВАВЫЙ ЧЕТВЕРГ=THURSDAY.1998\THURSDAY.1998\Thursday.1998.720p.WEB-D.mkv
Format : Matroska
File size : 3.34 GiB
Duration : 1h 24mn
Overall bit rate : 5 677 Kbps
Encoded date : UTC 2013-09-29 23:21:27
Writing application : mkvmerge v3.3.0 ('Language') built on Mar 24 2010 14:59:24
Writing library : libebml v0.8.0 + libmatroska v0.9.0
Video
ID : 1
Format : AVC
Format/Info : Advanced Video Codec
Format profile : High@L3.1
Format settings, CABAC : Yes
Format settings, ReFrames : 8 frames
Muxing mode : Container profile=Unknown@3.1
Codec ID : V_MPEG4/ISO/AVC
Duration : 1h 24mn
Bit rate : 4 715 Kbps
Width : 1 280 pixels
Height : 712 pixels
Display aspect ratio : 16:9
Frame rate : 25.000 fps
Color space : YUV
Chroma subsampling : 4:2:0
Bit depth : 8 bits
Scan type : Progressive
Bits/(Pixel*Frame) : 0.207
Stream size : 2.71 GiB (81%)
Title : Thursday.1998.
Writing library : x264 core 115 r1995 c1e60b9
Encoding settings : cabac=1 / ref=8 / deblock=1:-2:-1 / analyse=0x3:0x113 / me=umh / subme=10 / psy=1 / psy_rd=1.00:0.20 / mixed_ref=1 / me_range=32 / chroma_me=1 / trellis=2 / 8x8dct=1 / cqm=0 / deadzone=21,11 / fast_pskip=0 / chroma_qp_offset=-3 / threads=12 / sliced_threads=0 / nr=0 / decimate=0 / interlaced=0 / bluray_compat=0 / constrained_intra=0 / bframes=3 / b_pyramid=2 / b_adapt=2 / b_bias=0 / direct=3 / weightb=1 / open_gop=0 / weightp=2 / keyint=250 / keyint_min=25 / scenecut=40 / intra_refresh=0 / rc_lookahead=60 / rc=2pass / mbtree=1 / bitrate=4715 / ratetol=1.0 / qcomp=0.60 / qpmin=0 / qpmax=69 / qpstep=4 / cplxblur=20.0 / qblur=0.5 / vbv_maxrate=50000 / vbv_bufsize=50000 / nal_hrd=none / ip_ratio=1.40 / aq=1:1.00
Language : English
Audio #1
ID : 2
Format : AC-3
Format/Info : Audio Coding 3
Mode extension : CM (complete main)
Codec ID : A_AC3
Duration : 1h 24mn
Bit rate mode : Constant
Bit rate : 192 Kbps
Channel(s) : 2 channels
Channel positions : Front: L R
Sampling rate : 48.0 KHz
Stream size : 116 MiB (3%)
Title : AVO Живов @ AC3 2ch 192 kbps
Language : Russian
Audio #2
ID : 3
Format : AC-3
Format/Info : Audio Coding 3
Mode extension : CM (complete main)
Codec ID : A_AC3
Duration : 1h 24mn
Bit rate mode : Constant
Bit rate : 192 Kbps
Channel(s) : 2 channels
Channel positions : Front: L R
Sampling rate : 48.0 KHz
Stream size : 116 MiB (3%)
Title : AVO Гоблин-New @ AC3 2ch 192 kbps
Language : Russian
Audio #3
ID : 4
Format : AC-3
Format/Info : Audio Coding 3
Mode extension : CM (complete main)
Codec ID : A_AC3
Duration : 1h 24mn
Bit rate mode : Constant
Bit rate : 192 Kbps
Channel(s) : 2 channels
Channel positions : Front: L R
Sampling rate : 48.0 KHz
Stream size : 116 MiB (3%)
Title : AVO Гоблин-Old @ AC3 2ch 192 kbps
Language : Russian
Audio #4
ID : 5
Format : AC-3
Format/Info : Audio Coding 3
Mode extension : CM (complete main)
Codec ID : A_AC3
Duration : 1h 24mn
Bit rate mode : Constant
Bit rate : 192 Kbps
Channel(s) : 2 channels
Channel positions : Front: L R
Sampling rate : 48.0 KHz
Stream size : 116 MiB (3%)
Title : MVO @ AC3 2ch 192 kbps
Language : Russian
Audio #5
ID : 6
Format : AC-3
Format/Info : Audio Coding 3
Mode extension : CM (complete main)
Codec ID : A_AC3
Duration : 1h 24mn
Bit rate mode : Constant
Bit rate : 192 Kbps
Channel(s) : 2 channels
Channel positions : Front: L R
Sampling rate : 48.0 KHz
Stream size : 116 MiB (3%)
Title : Original @ AC3 2ch 192 kbps
Language : English
Text #1
ID : 7
Format : UTF-8
Codec ID : S_TEXT/UTF8
Codec ID/Info : UTF-8 Plain Text
Title : (* UTF-8)
Language : Russian
Text #2
ID : 8
Format : UTF-8
Codec ID : S_TEXT/UTF8
Codec ID/Info : UTF-8 Plain Text
Title : Goblin-New (* UTF-8)
Language : Russian
Text #3
ID : 9
Format : UTF-8
Codec ID : S_TEXT/UTF8
Codec ID/Info : UTF-8 Plain Text
Title : Goblin-Old (* UTF-8)
Language : Russian
Text #4
ID : 10
Format : UTF-8
Codec ID : S_TEXT/UTF8
Codec ID/Info : UTF-8 Plain Text
Title : (* UTF-8)
Language : English

Скриншоты

, ,
, ,
, ,
, ,
Скачать

Скачать торрент!

Как скачивать? · Что такое торрент? · Рейтинг и ограничения

Сайт не распространяет и не хранит электронные версии произведений, а лишь предоставляет доступ к создаваемому пользователями каталогу ссылок на торрент-файлы, которые содержат только списки хеш-сумм

[Профиль] [ЛС]
Показать сообщения:    
Ответить на тему

Текущее время: Сегодня 16:17

Часовой пояс: GMT + 4



Вы не можете начинать темы
Вы не можете отвечать на сообщения
Вы не можете редактировать свои сообщения
Вы не можете удалять свои сообщения
Вы не можете голосовать в опросах
Вы не можете прикреплять файлы к сообщениям
Вы не можете скачивать файлы