Город воров / The Town (Бен Аффлек / Ben Affleck) [2010 г., США, триллер, драма, криминал, BDRemux 1080p]

Ответить на тему
 
Автор Сообщение

user ®

Стаж: 7 лет 7 месяцев

Сообщений: 20008

Пост Пост: #1 от 01-Окт-2013 03:05

[Цитировать]

Город воров / The Town- Страна: США
Жанр: триллер, драма, криминал
Год выпуска: 2010
Продолжительность: 02:04:44-Перевод : Профессиональный (дубляж)
Формат субтитров: srt
Оригинальная аудиодорожка: Английская-Режиссёр: Бен Аффлек / Ben Affleck-В ролях: Бен Аффлек, Ребекка Холл, Джон Хэмм, Джереми Реннер, Блейк Лайвли, Оуэн Бурк, Титус Уэлливер, Пит Постлетуэйт, Крис Купер-Описание: Дуг МакРэй - один из них, но не стоит «чесать всех под одну гребенку». В отличие от большинства у Дуга был шанс на успех, шанс на то, чтобы не идти по криминальному пути своего отца. Однако вместо этого он стал фактическим лидером группы безжалостных грабителей банков, которые гордятся тем, что берут все, что хотят, и выходят сухими из воды. Единственная семья Дуга - его партнеры по преступному ремеслу, особенно Джем, который, несмотря на всю свою непредсказуемость и дикий нрав, ближе всего к тому, что Дуг понимает под словом «брат». Однако все изменилось после одного дела, в ходе которого Джем ненадолго захватил заложницу - банковского менеджера Клэр Киси. Когда грабители узнают, что девушка живет в самом Чарльстоне, Джем начинает нервничать и решает проверить, как много она успела заметить. Зная, на что способен Джем, Дуг берет это дело на себя. Он разыскивает Клэр, и та даже не представляет, что в их «случайной» встрече нет ничего случайного и что этот очаровательный незнакомец - один из тех людей, которые держали ее жизнь в своих руках всего несколько дней назад.-Тип релиза: BDRemux
Контейнер: MKV
Видео: MPEG-4 AVC / 13954 kbps / 1080p / 23,976 fps / 16:9 / High Profile 4.1
Аудио 1: Русский дубляж / Dolby Digital / 5.1 / 48 kHz / 384 kbps
Аудио 2: Английский / DTS-HD Master / 5.1 / 48 kHz / 2722 kbps / 24-bit (DTS Core: 5.1 / 48 kHz / 1509 kbps / 24-bit)
Аудио 3: Английский / Dolby Digital / 2.0 / 48 kHz / 192 kbps (коменты)
Cубтитры 1: Русские (надписи и пр. R5)
Cубтитры 2: Русские (полные R5)
Cубтитры 3: Английские SDH
Cубтитры 4: Английские SDH (PGS)
Cубтитры : Русские по Гоблину, можно скачать здесь
Чаптеры: 13 шт.-
-

MediaInfo

Полное имя                       : The.Town.2010.Theatrical.Cut.Blu-ray.1080p.Rus.Eng.mkv
Формат                           : Matroska
Размер файла                     : 15,1 Гбайт
Продолжительность                : 2 ч. 4 м.
Общий поток                      : 17,3 Мбит/сек
Название фильма                  : HANSMER
Дата кодирования                 : UTC 2011-02-23 08:28:51
Программа кодирования            : mkvmerge v4.5.0 ('Speed of Light') сборка от Feb  1 2011 02:10:32
Библиотека кодирования           : libebml v1.2.0 + libmatroska v1.1.0
Видео
Идентификатор                    : 1
Формат                           : AVC
Формат/Информация                : Advanced Video Codec
Профиль формата                  : High@L4.1
Параметр CABAC формата           : Да
Параметр ReFrames формата        : 2 кадры
Режим смешивания                 : Container profile=Unknown@0.0
Идентификатор кодека             : V_MPEG4/ISO/AVC
Продолжительность                : 2 ч. 4 м.
Вид битрейта                     : Переменный
Битрейт                          : 13,0 Мбит/сек
Ширина                           : 1920 пикс.
Высота                           : 1080 пикс.
Соотношение сторон               : 16:9
Частота кадров                   : 23,976 кадр/сек
Цветовое пространство            : YUV
Подвыборка цветности             : 4:2:0
Битовая глубина                  : 8 бит
Тип развёртки                    : Прогрессивная
Бит/(Пиксели*Кадры)              : 0.261
Размер потока                    : 11,3 Гбайт (75%)
Заголовок                        : 13954 kbps
Язык                             : English
Аудио #1
Идентификатор                    : 2
Формат                           : AC-3
Формат/Информация                : Audio Coding 3
Расширение режима                : CM (complete main)
Идентификатор кодека             : A_AC3
Продолжительность                : 2 ч. 4 м.
Вид битрейта                     : Постоянный
Битрейт                          : 384 Кбит/сек
Канал(ы)                         : 6 канала(ов)
Расположение каналов             : Front: L C R, Side: L R, LFE
Частота                          : 48,0 КГц
Битовая глубина                  : 16 бит
Метод сжатия                     : С потерями
Размер потока                    : 343 Мбайт (2%)
Заголовок                        : Dub
Язык                             : Russian
Аудио #2
Идентификатор                    : 3
Формат                           : DTS
Формат/Информация                : Digital Theater Systems
Профиль формата                  : MA / Core
Идентификатор кодека             : A_DTS
Продолжительность                : 2 ч. 4 м.
Вид битрейта                     : Переменный
Битрейт                          : 3403 Кбит/сек / 1510 Кбит/сек
Канал(ы)                         : 6 канала(ов)
Расположение каналов             : Front: L C R, Side: L R, LFE
Частота                          : 48,0 КГц
Битовая глубина                  : 24 бит
Метод сжатия                     : Без потерь / Lossy
Заголовок                        : DTS-HD MA 5.1 @ 2722 kbps
Язык                             : English
Аудио #3
Идентификатор                    : 4
Формат                           : AC-3
Формат/Информация                : Audio Coding 3
Профиль формата                  : Dolby Digital
Расширение режима                : CM (complete main)
Идентификатор кодека             : A_AC3
Продолжительность                : 2 ч. 4 м.
Вид битрейта                     : Постоянный
Битрейт                          : 192 Кбит/сек
Канал(ы)                         : 2 канала(ов)
Расположение каналов             : Front: L R
Частота                          : 48,0 КГц
Битовая глубина                  : 16 бит
Метод сжатия                     : С потерями
Размер потока                    : 171 Мбайт (1%)
Заголовок                        : Commentary
Язык                             : English
Текст #1
Идентификатор                    : 5
Формат                           : UTF-8
Идентификатор кодека             : S_TEXT/UTF8
Идентификатор кодека/Информация  : UTF-8 Plain Text
Заголовок                        : Forced
Язык                             : Russian
Текст #2
Идентификатор                    : 6
Формат                           : UTF-8
Идентификатор кодека             : S_TEXT/UTF8
Идентификатор кодека/Информация  : UTF-8 Plain Text
Заголовок                        : Full
Язык                             : Russian
Текст #3
Идентификатор                    : 7
Формат                           : UTF-8
Идентификатор кодека             : S_TEXT/UTF8
Идентификатор кодека/Информация  : UTF-8 Plain Text
Заголовок                        : SDH
Язык                             : English
Текст #4
Идентификатор                    : 8
Формат                           : PGS
Идентификатор кодека             : S_HDMV/PGS
Идентификатор кодека/Информация  : The same subtitle format used on BDs/HD-DVDs
Заголовок                        : SDH (PGS)
Язык                             : English
Меню
00:00:00.000                     : :00:00:00.000
00:10:13.530                     : :00:10:13.530
00:17:50.736                     : :00:17:50.736
00:29:19.216                     : :00:29:19.216
00:38:45.823                     : :00:38:45.823
00:50:42.623                     : :00:50:42.623
00:58:40.934                     : :00:58:40.934
01:09:08.061                     : :01:09:08.061
01:17:31.272                     : :01:17:31.272
01:28:09.117                     : :01:28:09.117
01:37:58.664                     : :01:37:58.664
01:48:42.307                     : :01:48:42.307
01:57:48.270                     : :01:57:48.270
Скачать

Скачать торрент!

Как скачивать? · Что такое торрент? · Рейтинг и ограничения

Сайт не распространяет и не хранит электронные версии произведений, а лишь предоставляет доступ к создаваемому пользователями каталогу ссылок на торрент-файлы, которые содержат только списки хеш-сумм

[Профиль] [ЛС]
Показать сообщения:    
Ответить на тему

Текущее время: Сегодня 05:53

Часовой пояс: GMT + 4



Вы не можете начинать темы
Вы не можете отвечать на сообщения
Вы не можете редактировать свои сообщения
Вы не можете удалять свои сообщения
Вы не можете голосовать в опросах
Вы не можете прикреплять файлы к сообщениям
Вы не можете скачивать файлы