Ученик мастера: Рождение легенды / Нулевой Тай-цзи / Tai Chi Zero / Tai Chi 0 (Стивен Фунь / Стивен Фанг, Стивен Фунг / Stephen Fung) [2012, Китай, боевик, драма, HDRip] Dub (Студия SOL PRO)

Ответить на тему
 
Автор Сообщение

user ®

Стаж: 11 лет

Сообщений: 15151

Пост Пост: #1 от 30-Сен-2013 22:05

[Цитировать]

Ученик мастера: Рождение легенды / Нулевой Тай-цзиTai Chi Zero / Tai Chi 0 Страна: Китай
Жанр: боевик, драма
Год выпуска: 2012
Продолжительность: 01:38:07
Перевод: Профессиональный (дублированный) Студия SOL PRO
Cубтитры: нет
Оригинальная аудиодорожка: нет
Режиссер: Стивен Фунь / Стивен Фанг, Стивен Фунг / Stephen Fung
В ролях: Стивен Фанг, Юань Сяочао, Тони Люн Ка Фай, Эдди Пэн, Ки Шу, Дэниэл Ву, Стэнли Фунг, Пьер Бурдо, Пол Филип Кларк, Кеони Эверингтон, Анджела Бейби
Описание: Необыкновенно одарённого ребёнка Яна все считают местным дурачком, но он не обращает на это внимание. Ян отправляется в затерянную в горах деревню мастеров кунг-фу, чтобы изучить тайны этой борьбы. Но, он недостоин обучаться великому искусству — в первом же бою он проиграл девушке. Только местный нищий старик сочувствует ему и берется научить его. Эти навыки ему пригодятся в борьбе с злодеями, чтобы вернуть доверие жителей деревни и завоевать сердце красавицы Юнь. Ведь нищий старик, на самом деле, великий мастер кунгфу и отец Юнь. Битва начинается!


Сэмпл: http://multi-up.com/908403
Качество видео: HDRip (Исх. BDRip 720p)
Формат видео: AVI
Видео: 640x272 (2.35:1), 23.976 fps, XviD build 50 ~926 kbps avg, 0.22 bit/pixel
Аудио: 48 kHz, MPEG Layer 3, 2 ch, ~128.00 kbps avg

MediaInfo

Общее
Полное имя : S:\Фильмы\Ученик мастера. 2012. HDRip. (AleksSin).avi
Формат : AVI
Формат/Информация : Audio Video Interleave
Размер файла : 747 Мбайт
Продолжительность : 1 ч. 38 м.
Общий поток : 1064 Кбит/сек
Программа кодирования : VirtualDubMod 1.5.10.3 | www.virtualdub-fr.org || (build 2550/release)
Библиотека кодирования : VirtualDubMod build 2550/release
Видео
Идентификатор : 0
Формат : MPEG-4 Visual
Профиль формата : Advanced Simple@L5
Параметр BVOP формата : 2
Параметр QPel формата : Нет
Параметр GMC формата : Без точки перехода
Параметр матрицы формата : Default (H.263)
Идентификатор кодека : XVID
Идентификатор кодека/Подсказка : XviD
Продолжительность : 1 ч. 38 м.
Битрейт : 926 Кбит/сек
Ширина : 640 пикс.
Высота : 272 пикс.
Соотношение сторон : 2,35:1
Частота кадров : 23,976 кадр/сек
Цветовое пространство : YUV
Подвыборка цветности : 4:2:0
Битовая глубина : 8 бит
Тип развёртки : Прогрессивная
Метод сжатия : С потерями
Бит/(Пиксели*Кадры) : 0.222
Размер потока : 650 Мбайт (87%)
Библиотека кодирования : XviD 1.2.1 (UTC 2008-12-04)
Аудио
Идентификатор : 1
Формат : MPEG Audio
Версия формата : Version 1
Профиль формата : Layer 3
Идентификатор кодека : 55
Идентификатор кодека/Подсказка : MP3
Продолжительность : 1 ч. 38 м.
Вид битрейта : Постоянный
Битрейт : 128 Кбит/сек
Каналы : 2 канала
Частота : 48,0 КГц
Метод сжатия : С потерями
Размер потока : 89,8 Мбайт (12%)
Выравнивание : Соединение по промежуткам
Продолжительность промежутка : 42 мс. (1,00 видеокадр)
Время предзагрузки промежутка : 504 ms
Библиотека кодирования : LAME3.99r
Настройки программы : -m s -V 4 -q 2 -lowpass 17 -b 128

Скриншот c названием фильма

Скриншоты

Скачать

Скачать торрент! Ученик мастера: Рождение легенды / Нулевой Тай-цзи / Tai Chi Zero / Tai Chi 0 (Стивен Фунь / Стивен Фанг, Стивен Фунг / Stephen Fung) [2012, Китай, боевик, драма, HDRip] Dub (Студия SOL PRO)

Как скачивать? · Что такое торрент? · Рейтинг и ограничения

Сайт не распространяет и не хранит электронные версии произведений, а лишь предоставляет доступ к создаваемому пользователями каталогу ссылок на торрент-файлы, которые содержат только списки хеш-сумм

[Профиль] [ЛС]
Показать сообщения:    
Ответить на тему

Текущее время: Сегодня 07:31

Часовой пояс: GMT + 4



Вы не можете начинать темы
Вы не можете отвечать на сообщения
Вы не можете редактировать свои сообщения
Вы не можете удалять свои сообщения
Вы не можете голосовать в опросах
Вы не можете прикреплять файлы к сообщениям
Вы не можете скачивать файлы