Битва / Andolan (Азиз Седжавал / Aziz Sejawal) [1995, Индия, Боевик, драма, комедия, DVDRip] AVO (Кашкин)

Ответить на тему
 
Автор Сообщение

user ®

Стаж: 12 лет

Сообщений: 15092

Пост Пост: #1 от 30-Сен-2013 22:05

[Цитировать]

Битва / Andolan
Страна: Индия
Жанр: Боевик, драма, комедия
Год выпуска: 1995
Продолжительность: 02:43:02
Перевод: Авторский (одноголосый закадровый) Александр Кашкин
Cубтитры: нет
Режиссер: Азиз Седжавал / Aziz Sejawal
В ролях: Ишрат Али, Соми Али, Дивья Бхарти, Санджай Датт, Викрам Гокхале, Говинда, Рамеш Гойал, Мохан Джоши, Камалдип, Мамта Кулкарни
Описание: Два друга, Аникет и Адарш росли в одной семье как братья. После окончания колледжа Аникет уезжает на учебу за границу. Вернувшись домой, Аникет узнает о смерти отца, погибшего от рук наемных убийц. Долг братьев найти заказчиков убийства и покарать их.
Доп. информация: Исходник DVD-9 (СПАСИБО! Mersim)
Сэмпл: http://multi-up.com/908140
Качество видео: DVDRip
Формат видео: AVI
Видео: XviD build 50, 688x336 (2.05:1), 23.976 fps, 1144 kbps avg
Аудио: MPEG Layer 3, 48 kHz, 2/0 (L,R) ch, 128.00 kbps avg

MediaInfo

General
Complete name : D:\Bitva.1995.XviD.DVDRip-Dego.avi
Format : AVI
Format/Info : Audio Video Interleave
File size : 1.46 GiB
Duration : 2h 43mn
Overall bit rate : 1 282 Kbps
Writing application : VirtualDubMod 1.5.10.2 (build 2540/release)
Writing library : VirtualDubMod build 2540/release
Video
ID : 0
Format : MPEG-4 Visual
Format profile : AdvancedSimple@L5
Format settings, BVOP : Yes
Format settings, QPel : No
Format settings, GMC : No warppoints
Format settings, Matrix : Default (MPEG)
Codec ID : XVID
Codec ID/Hint : XviD
Duration : 2h 43mn
Bit rate : 1 145 Kbps
Width : 688 pixels
Height : 336 pixels
Display aspect ratio : 2.048
Frame rate : 23.976 fps
Resolution : 24 bits
Colorimetry : 4:2:0
Scan type : Progressive
Bits/(Pixel*Frame) : 0.207
Stream size : 1.30 GiB (89%)
Writing library : XviD 1.2.1 (UTC 2008-12-04)
Audio
ID : 1
Format : MPEG Audio
Format version : Version 1
Format profile : Layer 3
Codec ID : 55
Codec ID/Hint : MP3
Duration : 2h 43mn
Bit rate mode : Constant
Bit rate : 128 Kbps
Channel(s) : 2 channels
Sampling rate : 48.0 KHz
Resolution : 16 bits
Stream size : 149 MiB (10%)
Alignment : Aligned on interleaves
Interleave, duration : 42 ms (1.00 video frame)
Interleave, preload duration : 504 ms
Writing library : LAME3.98r
Encoding settings : -m s -V 4 -q 2 -lowpass 17 -b 128

Скриншоты

Скачать

Скачать торрент! Битва / Andolan (Азиз Седжавал / Aziz Sejawal) [1995, Индия, Боевик, драма, комедия, DVDRip] AVO (Кашкин)

Как скачивать? · Что такое торрент? · Рейтинг и ограничения

Сайт не распространяет и не хранит электронные версии произведений, а лишь предоставляет доступ к создаваемому пользователями каталогу ссылок на торрент-файлы, которые содержат только списки хеш-сумм

[Профиль] [ЛС]
Показать сообщения:    
Ответить на тему

Текущее время: Сегодня 19:30

Часовой пояс: GMT + 4



Вы не можете начинать темы
Вы не можете отвечать на сообщения
Вы не можете редактировать свои сообщения
Вы не можете удалять свои сообщения
Вы не можете голосовать в опросах
Вы не можете прикреплять файлы к сообщениям
Вы не можете скачивать файлы