Ты моя жизнь / Tu Hi Meri Zindagi (Роно Деб Мукерджи / Rono Deb Mukherjee) [1965, Индия, Драма, DVDRip] Dub + original

Ответить на тему
 
Автор Сообщение

user ®

Стаж: 12 лет

Сообщений: 15124

Пост Пост: #1 от 30-Сен-2013 18:55

[Цитировать]

Ты моя жизнь / Tu Hi Meri Zindagi
Страна: Индия
Жанр: Драма
Год выпуска: 1965
Продолжительность: 02:03:49
Перевод: Профессиональный (дублированный)
Cубтитры: нет
Оригинальная аудиодорожка: хинди
Режиссер: Роно Деб Мукерджи / Rono Deb Mukherjee
В ролях: Деб Мукерджи, Ниведита, Саломе, Даршан, Лата Синха, Чхая Деви, Амар, Гаджанан Джагирдар, Пол Шарма, Шетти, Хира Савант, Ума Кхосла, Придип Гупта, Сударшан, Деврадж
Описание: Фильм посвящен народно-освободительной борьбе населения португальской колонии Гоа за свою независимость и воссоединение с Индией. В пролог и эпилог включены документальные кадры, рассказывающие о международном резонансе на события в Гоа.. ..1937 год. На городской площади на глазах у жены и матери португальские колонизаторы расстреливают революционера Артура Антонио Гомеса, уничтожают людей, слушавших призывы патриота к освободительной борьбе. Офицер намерен убить Монти, сына Гомеса, но какая-то женщина-португалка просит отдать ребенка ей. Так навсегда разлучили Монти с его матерью. Прошло двадцать лет. Все так же тяготеет четырехсотлетнее колониальное иго над народом Гоа. Но, несмотря на жестокость португальцев, население страны продолжает борьбу, помня о своем герое Артуре Гомесе, погибшем от рук убийц. Младший сын Гомеса Рокки, родившись после смерти отца, не знал его имени: бабушка оберегала мальчика от революционного движения. Рокки был молод, счастлив и беззаботен, любил Марию. Но однажды его счастье кончилось: португальский офицер надругался над Марией, и девушка, не вынеся позора, покончила с собой. Рокки начинает мстить врагам за гибель возлюбленной. Однажды, переодевшись в одежду убитого португальского солдата, он проникает в офицерский клуб. В каждом португальце, находящемся в танцевальном зале, он видит своего врага и готов мстить всем. А когда позднее люди узнают, что Рокки сын Артура Гомеса, они с надеждой начинают смотреть на него. Будет ли сын достоин памяти отца? Рокки оправдал надежды и доверие людей, он стал на путь решительной борьбы с португальскими правителями. На заборах появились объявления военной полиции, обещающие награду за поимку Рокки. Монти, воспитанный в португальской семье, превращается в жестокого палача. Брат сражается против брата, и лишь когда Рокки арестовывают и ему грозит смерть, Монти узнает, кто его ненавистный враг. Тогда он порывает с салазаровскими жандармами, переходит на сторону свободолюбивого народа Гоа, освобождает Рокки из-под ареста, и они вместе нападают на радиостанцию. Уничтожив немало португальских солдат и офицеров, два сына Гомеса погибают. Но эта жертва не была напрасной. На помощь восставшим пришли народы Индии, и в конце концов Гоа освободилась от колониальной зависимости.
Исходник: DVD9
Русская дублированная звуковая дорожка взята с VHS
Песни с оригинальной дорожки
Рип, сведение и синхронизация звука: pca1962
Сэмпл: http://sendfile.su/874183

Качество видео: DVDRip
Формат видео: AVI
Видео: DivX, 640x480, 23.97 fps, 1711 kbps
Аудио: AC3, 48 kHz, 2.0 (stereo), 192 kbps (русский)
Аудио 2: AC3, 48 kHz, 5.1 (6 ch), 448 kbps (хинди)

Доп. информация

Советский дубляж!
Русская звуковая дорожка 11 минут короче оригинала фильма. Поэтому будут встречаться небольшие фрагменты без дубляжа.

MediaInfo

=== Общие ===
Полное имя : Ti.Moya.Jizn.1965.DVDRip.DivX.pca1962.avi
Формат : AVI
Описание формата : Audio Video Interleave
Профиль формата : OpenDML
Размер файла : 2.05 Гб
Длительность : 2ч 3мин
Общий битрейт : 2 369 кбит/сек
Програмное обеспечение : VirtualDubModRus 1.5.10.2 (build 2542/release)
Кодирующая библиотека : VirtualDubMod build 2542/release
=== Видео ===
ID (Идентификатор) : 0
Формат : MPEG-4 Visual
Профиль формата : Advanced Simple@L5
Параметр 'BVOP' : 1
Параметр 'QPel' : Нет
Параметр 'GMC' : No warppoints
Параметр 'Matrix' : Default (H.263)
Идентификатор кодека : DX50
Подпись кодека : DivX 5
Длительность : 2ч 3мин
Битрейт : 1711 кбит/сек
Ширина кадра : 640 пикселей
Высота кадра : 480 пикселей
Соотношение сторон : 4:3
Частота кадров : 23.976 кадров/сек
Цветовое пространство : YUV
Субдискретизация насыщенности : 4:2:0
Глубина (разрядность) : 8 bits
Тип развертки : Прогрессивная
Режим сжатия : С потерями
Бит/(пиксель*кадр) : 0.232
Размер потока : 1.48 Гб (72%)
Кодирующая библиотека : XviD 1.2.1 (UTC 2008-12-04)
=== Аудио 1 ===
ID (Идентификатор) : 1
Формат : AC-3
Описание формата : Audio Coding 3
Mode extension : CM (complete main)
Идентификатор кодека : 2000
Длительность : 2ч 3мин
Тип битрейта : Постоянный
Битрейт : 192 кбит/сек
Канал(ы) : 2 каналов
Расположение каналов : Front: L R
Частота дискретизации : 48.0 кГц
Глубина (разрядность) : 16 bits
Режим сжатия : С потерями
Размер потока : 170 Мб (8%)
Расположение потока : Split accross interleaves
Период чередования : 42 мс (1.00 video frame)
Предварительная загрузка : 500 мс
=== Аудио 2 ===
ID (Идентификатор) : 2
Формат : AC-3
Описание формата : Audio Coding 3
Mode extension : CM (complete main)
Идентификатор кодека : 2000
Длительность : 2ч 3мин
Тип битрейта : Постоянный
Битрейт : 448 кбит/сек
Канал(ы) : 6 каналов
Расположение каналов : Front: L C R, Side: L R, LFE
Частота дискретизации : 48.0 кГц
Глубина (разрядность) : 16 bits
Режим сжатия : С потерями
Размер потока : 397 Мб (19%)
Расположение потока : Split accross interleaves
Период чередования : 42 мс (1.00 video frame)
Предварительная загрузка : 500 мс

Скриншот c названием фильма

Скачать

Скачать торрент! Ты моя жизнь / Tu Hi Meri Zindagi (Роно Деб Мукерджи / Rono Deb Mukherjee) [1965, Индия, Драма, DVDRip] Dub + original

Как скачивать? · Что такое торрент? · Рейтинг и ограничения

Сайт не распространяет и не хранит электронные версии произведений, а лишь предоставляет доступ к создаваемому пользователями каталогу ссылок на торрент-файлы, которые содержат только списки хеш-сумм

[Профиль] [ЛС]
Показать сообщения:    
Ответить на тему

Текущее время: Сегодня 13:22

Часовой пояс: GMT + 4



Вы не можете начинать темы
Вы не можете отвечать на сообщения
Вы не можете редактировать свои сообщения
Вы не можете удалять свои сообщения
Вы не можете голосовать в опросах
Вы не можете прикреплять файлы к сообщениям
Вы не можете скачивать файлы