Эго / Ego (Лиза Джеймс-Ларссон / Lisa James-Larsson) [20013, Швеция, драма, DVDRip] Sub Rus + Original Swe

Ответить на тему
 
Автор Сообщение

user ®

Стаж: 7 лет 7 месяцев

Сообщений: 20008

Пост Пост: #1 от 30-Сен-2013 18:55

[Цитировать]

Эго / Ego
Страна: Швеция
Жанр: драма
Год выпуска: 2013
Продолжительность: 01:39:50
Перевод: Субтитры
Cубтитры: русские
Оригинальная аудиодорожка: шведский
Режиссер: Лиза Джеймс-Ларссон / Lisa James-Larsson
В ролях: Мартин Волстром
Милен Хедру
Сиселла Кайл
Петер Андерссон
Эмиль Джонсен
Кристоффер Свенссон
Джонатан Родригез
Свен-Аке Густавссон
Йорген Торссон
Ричард Ульфзэтер
Описание: Для 25-летнего Себастьяна жизнь - это сплошная череда вечеринок с друзьями, знакомств со случайными подружками и необременительных занятий музыкой. Он не ставит перед собой цель сделать музыкальную карьеру или найти настоящую любовь. Все изменилось, когда он попал в аварию и ослеп. Именно тогда выяснилось, кто есть кто в его окружении...
Доп. информация: http://www.imdb.com/title/tt2287715/?ref_=sr_2
http://www.kinopoisk.ru/film/670298/
Сэмпл: http://multi-up.com/908252
Качество видео: DVDRip
Формат видео: AVI
Видео: 640x272 (2.35:1) 25 fps XviD MPEG-4 838 kbps avg 0.19 bit/pixel 602.58 Mb
Аудио: 48 kHz MPEG Layer 3 2 ch 121.74 kbps avg 1:39:50.087 / 86.92 Mb
Формат субтитров: softsub (SRT)
Доп. информация о субтитрах: перевод kon2011
37
00:05:35,920 --> 00:05:41,756
Она была самой знаменитой танцовщицей
степа в Норвегии, единственной в своем роде.
38
00:05:43,080 --> 00:05:45,674
И она умерла...
39
00:05:45,880 --> 00:05:50,908
упав с лестницы...
В Ставангере!
40
00:05:51,120 --> 00:05:54,351
- Три лестничных пролета!
- Это ужасно.
41
00:05:54,560 --> 00:05:57,677
Наверное, мне лучше уйти...
42
00:06:00,400 --> 00:06:03,517
- Прими мои соболезнования.
- Спасибо.
43
00:06:06,360 --> 00:06:10,114
- Не переборщил?
- Слегка.
44
00:06:20,120 --> 00:06:26,150
Тот лысый продюсер был здесь вчера,
искал синий пиджак.
45
00:06:26,360 --> 00:06:28,191
Хаммарштен?
46
00:06:28,400 --> 00:06:31,517
Ты поставил мою запись?
47
00:06:31,720 --> 00:06:35,952
Нет, прости. Он тут недолго пробыл.
Не было его размера.
48
00:06:37,160 --> 00:06:42,029
- Черт! Я все время его упускаю.
- Разве они не хотели подписать с тобой контракт?
49
00:06:42,240 --> 00:06:49,112
Вроде да... Но потом они взяли какого-то
придурка из «Идола» с таким же «луком».
50
00:06:49,320 --> 00:06:55,395
Вот дерьмо. Ты видел кого-нибудь в «Идоле»,
кто выглядит так, как я?

MediaInfo

Общее
Полное имя : D:\Ego_2013_RU\Ego_2013_RU.avi
Формат : AVI
Формат/Информация : Audio Video Interleave
Размер файла : 695 Мбайт
Продолжительность : 1 ч. 39 м.
Режим общего битрейта : Переменный
Общий поток : 974 Кбит/сек
Программа кодирования : VirtualDubMod 1.5.10.2 (build 2540/release)
Библиотека кодирования : VirtualDubMod build 2540/release
Видео
Идентификатор : 0
Формат : MPEG-4 Visual
Профиль формата : Advanced Simple@L5
Параметр BVOP формата : 2
Параметр QPel формата : Нет
Параметр GMC формата : Без точки перехода
Параметр матрицы формата : Default (H.263)
Режим смешивания : Сжатый битовый поток
Идентификатор кодека : XVID
Идентификатор кодека/Подсказка : XviD
Продолжительность : 1 ч. 39 м.
Битрейт : 839 Кбит/сек
Ширина : 640 пикселей
Высота : 272 пикселя
Соотношение сторон : 2,35:1
Частота кадров : 25,000 кадров/сек
Цветовое пространство : YUV
Субдискретизация насыщенности : 4:2:0
Битовая глубина : 8 бит
Тип развёртки : Прогрессивная
Метод сжатия : С потерями
Бит/(Пиксели*Кадры) : 0.193
Размер потока : 599 Мбайт (86%)
Библиотека кодирования : XviD 61
Аудио
Идентификатор : 1
Формат : MPEG Audio
Версия формата : Version 1
Профиль формата : Layer 3
Режим : Joint stereo
Расширение режима : MS Stereo
Идентификатор кодека : 55
Идентификатор кодека/Подсказка : MP3
Продолжительность : 1 ч. 39 м.
Вид битрейта : Переменный
Битрейт : 122 Кбит/сек
Номинальный битрейт : 128 Кбит/сек
Каналы : 2 канала
Частота : 48,0 КГц
Метод сжатия : С потерями
Размер потока : 86,9 Мбайт (13%)
Выравнивание : Соединение по промежуткам
Продолжительность промежутка : 24 мс. (0,60 видеокадр)
Время предзагрузки промежутка : 545 мс.
Библиотека кодирования : LAME3.98r
Настройки программы : -m j -V 4 -q 2 -lowpass 17 --abr 128

Скриншот c названием фильма

Скриншоты


Скачать

Скачать торрент!

Как скачивать? · Что такое торрент? · Рейтинг и ограничения

Сайт не распространяет и не хранит электронные версии произведений, а лишь предоставляет доступ к создаваемому пользователями каталогу ссылок на торрент-файлы, которые содержат только списки хеш-сумм

[Профиль] [ЛС]
Показать сообщения:    
Ответить на тему

Текущее время: Сегодня 12:13

Часовой пояс: GMT + 4



Вы не можете начинать темы
Вы не можете отвечать на сообщения
Вы не можете редактировать свои сообщения
Вы не можете удалять свои сообщения
Вы не можете голосовать в опросах
Вы не можете прикреплять файлы к сообщениям
Вы не можете скачивать файлы