Мальчишник в Вегасе / The Hangover (Тодд Филлипс / Todd Phillips) [2009 г., США, Комедия, BDRemux 1080p] [Расширенная версия / Unrated] [Коллекционное издание] Dub + MVO (Киномания) + VO (seqw0) + AVO (Немахов) + Sub (Forced, Eng, Лицензия, seqw0)

Ответить на тему
 
Автор Сообщение

user ®

Стаж: 7 лет 7 месяцев

Сообщений: 20008

Пост Пост: #1 от 30-Сен-2013 15:45

[Цитировать]

Мальчишник в Вегасе (Расширенная версия) / The Hangover (Unrated)
Год выпуска: 2009
Страна: США
Жанр: Комедия
Продолжительность: 01:47:53
Перевод:
Профессиональный (полное дублирование) (сделана из дорожки с CEE Blu-Ray + многоголоска Киномании на эпизодах расширенной версии)
Профессиональный (многоголосый закадровый) (Киномания)
Любительский одноголосый (seqw0)
Авторский одноголосый (Юрий Немахов)
Русские субтитры: есть (два варианта)
Режиссер: Тодд Филлипс
В ролях: Брэдли Купер, Эд Хелмс, Зэк Галифианакис, Джастин Барта, Хэзер Грэм, Александра Баррези, Джефри Тэмбор, Кен Жонг, Рэйчел Харрис, Майк Тайсон
Описание: В разгар мальчишника трое друзей потеряли жениха. И это за 40 часов до свадьбы! Теперь им придётся восстановить ход своих мыслей, одурманенных накануне алкоголем, чтобы выяснить, что же произошло.
Доп. информация:

User Rating: 7.9/10 (123,670 votes)
В раздаче две дорожки с многоголоской Киномании. DTS-HD я делал сам, вытащив голос перевода из дорожки с DVD и наложив его на английскую дорожку с BD. Перевод я наложил гораздо тише, чем киноманцы, т.к., на мой взгляд, на DVD он наложен очень громко. Дорожку с DVD я также включил в раздачу, т.к. места она занимает мало, а такое громкое наложение перевода, возможно, кому-то нравится (об этом я и хочу узнать из результатов опроса).
За Blu-Ray Disc большое спасибо kA (HDBits).

Качество: BDRemux
Формат: MKV
Видео кодек: VC-1
Аудио кодек: DTS-HD, AC3
Видео: 1920x1080, 16500 kbps, 23.976 fps
Аудио1: Русский AC3 5.1, 48 KHz, 640 kbps профессиональный (полное дублирование) (сделана из дорожки с CEE Blu-Ray + многоголоска Киномании на эпизодах расширенной версии)
Аудио2: Русский DTS-HD Master Audio 5.1, 48 KHz, 16-bit, 2240 kbps, Lossless (DTS Core: 5.1, 48 KHz, 1536 kbps) профессиональный (многоголосый закадровый) (Киномания)
Аудио3: Русский DTS-HD Master Audio 5.1, 48 KHz, 16-bit, 2244 kbps, Lossless (DTS Core: 5.1, 48 KHz, 1536 kbps) Любительский одноголосый (seqw0)
Аудио4: Русский AC3 5.1, 48 KHz, 448 kbps авторский одноголосый (Юрий Немахов)
Аудио5: Русский AC3 5.1, 48 KHz, 448 kbps профессиональный (многоголосый закадровый) (Киномания)
Аудио6: Английский DTS-HD Master Audio 5.1, 48 KHz, 16-bit, 2244 kbps, Lossless (DTS Core: 5.1, 48 KHz, 1536 kbps)
Субтитры: Русские (с лицензии), русские (с матом, от seqw0), английские, английские (для плохослышащих), русские (только надписи)
Скриншоты:



MediaInfo

General
Complete name : Hangover.Unrated.2009.BD.Remux.1080p.VC-1.4xRus.Eng.mkv
Format : Matroska
File size : 18.7 GiB
Duration : 1h 47mn
Overall bit rate : 24.8 Mbps
Encoded date : UTC 2010-08-09 00:54:49
Writing application : mkvmerge v3.4.0 ('Rapunzel') built on May 15 2010 09:38:20
Writing library : libebml v0.8.0 + libmatroska v0.9.0
Video
ID : 1
Format : VC-1
Format profile : AP@L3
Codec ID : WVC1
Codec ID/Hint : Microsoft
Duration : 1h 47mn
Width : 1 920 pixels
Height : 1 080 pixels
Display aspect ratio : 16:9
Frame rate : 23.976 fps
Resolution : 8 bits
Colorimetry : 4:2:0
Scan type : Progressive
Language : English
Audio #1
ID : 2
Format : AC-3
Format/Info : Audio Coding 3
Format_Settings_ModeExtension : CM (complete main)
Codec ID : A_AC3
Duration : 1h 47mn
Bit rate mode : Constant
Bit rate : 640 Kbps
Channel(s) : 6 channels
Channel positions : Front: L C R, Side: L R, LFE
Sampling rate : 48.0 KHz
Stream size : 494 MiB (3%)
Title : Dublyazh+Kinomania AC3 5.1 640 kbps
Language : Russian
Audio #2
ID : 3
Format : DTS
Format/Info : Digital Theater Systems
Format profile : MA
Codec ID : A_DTS
Duration : 1h 47mn
Bit rate mode : Variable
Channel(s) : 6 channels
Channel positions : Front: L C R, Side: L R, LFE
Sampling rate : 48.0 KHz
Resolution : 16 bits
Title : MVO Kinomania DTS-HD Master Audio, 5.1, 2240 kbps, 16 bit, Lossless (1536 kbps core)
Language : Russian
Audio #3
ID : 4
Format : DTS
Format/Info : Digital Theater Systems
Format profile : MA
Codec ID : A_DTS
Duration : 1h 47mn
Bit rate mode : Variable
Channel(s) : 6 channels
Channel positions : Front: L C R, Side: L R, LFE
Sampling rate : 48.0 KHz
Resolution : 16 bits
Title : AVO seqw0 DTS-HD Master Audio, 5.1, 2244 kbps, 16 bit, Lossless (1536 kbps core)
Language : Russian
Audio #4
ID : 5
Format : AC-3
Format/Info : Audio Coding 3
Format_Settings_ModeExtension : CM (complete main)
Codec ID : A_AC3
Duration : 1h 47mn
Bit rate mode : Constant
Bit rate : 448 Kbps
Channel(s) : 6 channels
Channel positions : Front: L C R, Side: L R, LFE
Sampling rate : 48.0 KHz
Stream size : 346 MiB (2%)
Title : AVO Nemakhov AC3 5.1 448 kbps
Language : Russian
Audio #5
ID : 6
Format : AC-3
Format/Info : Audio Coding 3
Format_Settings_ModeExtension : CM (complete main)
Codec ID : A_AC3
Duration : 1h 47mn
Bit rate mode : Constant
Bit rate : 448 Kbps
Channel(s) : 6 channels
Channel positions : Front: L C R, Side: L R, LFE
Sampling rate : 48.0 KHz
Stream size : 346 MiB (2%)
Title : MVO Kinomania AC3 5.1 448 kbps
Language : Russian
Audio #6
ID : 7
Format : DTS
Format/Info : Digital Theater Systems
Format profile : MA
Codec ID : A_DTS
Duration : 1h 47mn
Bit rate mode : Variable
Channel(s) : 6 channels
Channel positions : Front: L C R, Side: L R, LFE
Sampling rate : 48.0 KHz
Resolution : 16 bits
Title : DTS-HD Master Audio, 5.1, 2244 kbps, 16 bit, Lossless (1536 kbps core)
Language : English
Text #1
ID : 8
Format : UTF-8
Codec ID : S_TEXT/UTF8
Codec ID/Info : UTF-8 Plain Text
Title : License
Language : Russian
Text #2
ID : 9
Format : UTF-8
Codec ID : S_TEXT/UTF8
Codec ID/Info : UTF-8 Plain Text
Title : Sleng (by seqw0)
Language : Russian
Text #3
ID : 10
Format : UTF-8
Codec ID : S_TEXT/UTF8
Codec ID/Info : UTF-8 Plain Text
Language : English
Text #4
ID : 11
Format : UTF-8
Codec ID : S_TEXT/UTF8
Codec ID/Info : UTF-8 Plain Text
Title : SDH
Language : English
Text #5
ID : 12
Format : UTF-8
Codec ID : S_TEXT/UTF8
Codec ID/Info : UTF-8 Plain Text
Title : Tol'ko nadpisi
Language : Russian
Menu
00:00:00.000 : en:1. Not Gonna Happen (Credits)
00:03:43.390 : en:2. Mature Friends
00:11:58.801 : en:3. Is He All There?
00:16:53.971 : en:4. Letting the Dogs Out
00:23:06.093 : en:5. Wolf Pack
00:27:25.310 : en:6. Not-Good
00:33:39.643 : en:7. Which Part Is Fun?
00:38:43.321 : en:8. Hospital Visit
00:41:43.543 : en:9. Here Bums the Groom
00:44:57.486 : en:10. Start the Tractor
00:48:12.181 : en:11. Loserville
00:52:55.964 : en:12. Target Practice
00:57:29.363 : en:13. Revelations by the Trunkload
01:03:09.160 : en:14. That Was Mike Tyson
01:06:29.986 : en:15. What do Tigers Dream Of?
01:11:44.133 : en:16. On Camera
01:14:13.866 : en:17. Lucky Charm
01:18:48.307 : en:18. All in the Cards
01:22:39.955 : en:19. Mixed Up the Bags
01:28:56.039 : en:20. Doug's Location
01:32:05.937 : en:21. Making Their Date
01:36:37.500 : en:22. Marriage Vow
01:39:04.063 : en:23. Not How This Works
01:43:00.007 : en:24. Evidence and End Credits
Скачать

Скачать торрент!

Как скачивать? · Что такое торрент? · Рейтинг и ограничения

Сайт не распространяет и не хранит электронные версии произведений, а лишь предоставляет доступ к создаваемому пользователями каталогу ссылок на торрент-файлы, которые содержат только списки хеш-сумм

[Профиль] [ЛС]
Показать сообщения:    
Ответить на тему

Текущее время: Сегодня 02:07

Часовой пояс: GMT + 4



Вы не можете начинать темы
Вы не можете отвечать на сообщения
Вы не можете редактировать свои сообщения
Вы не можете удалять свои сообщения
Вы не можете голосовать в опросах
Вы не можете прикреплять файлы к сообщениям
Вы не можете скачивать файлы