127 часов / 127 Hours (Дэнни Бойл / Danny Boyle) [2010, США, Великобритания, драма, триллер, приключения, BDRip 720p] DUB + AVO (Сербин) + DVO (Кубик в кубе) + DVO (OzzTV) + Sub rus, eng + original eng

Ответить на тему
 
Автор Сообщение

user ®

Стаж: 7 лет 7 месяцев

Сообщений: 20008

Пост Пост: #1 от 30-Сен-2013 12:35

[Цитировать]

127 Часов / 127 Hours Страна: США / Великобритания
Студия: Cloud Eight Films
Жанр: триллер, драма, приключения, биография
Год выпуска: 2010
Продолжительность: 01:33:41
Перевод 1: Профессиональный (дублированный) R5
Перевод 2: Одноголосый (закадровый) Ю.Сербин
Перевод 3: Профессиональный(двухголосый) Кубик в кубе
Перевод 4: Профессиональный(двухголосый) OzzTV
Cубтитры: русские R5,русские (forced,full.SDH,full.Voronine),английские
Оригинальная аудиодорожка: английский
Режиссер: Дэнни Бойл / Danny Boyle
В ролях: Джеймс Франко, Кейт Мара, Эмбер Тэмблин, Шон Ботт, Колман Стингер, Трит Уильямс, Джон Лоуренс, Кейт Бёртон, Бэйли Мишель Джонсон, Ребекка С. Олсон
Описание: Неудержимый скалолаз и любитель спрятанных в каньонах пещер в очередной раз в одиночестве едет в горы и оказывается в смертельной ловушке. 127 часов без еды, без питья и практически без надежды выжить. Тут-то и проявляется сила характера…
Доп. информация:
Сохранены и подписаны оригинальные чаптеры как на Blu-ray.
-Дорожка №2 получена наложением чистого голоса на центр декодированного DTS-HD MA.
За что огромное спасибо AndrewPlacid
-Дорожка №3 получена наложением чистого голоса на центр декодированного DTS-HD MA.
Выражаю огромную благодарность Voronine за предоставленную дорогу и Kisluk за сборку дороги.
-Дорожка №4 получена наложением чистого голоса на центр декодированного DTS-HD MA.
Огромное спасибо за чистый голос лорди74,за предоставленный материал Ko_Ant4
Тип релиза: BDRip 720p( EbP)
Контейнер: MKV
Видео: AVC,1280x694,5 997 Kbps,23.976 fps,0.282 bits
Аудио 1: Russian: 48 kHz, DTS, 3/2 (L,C,R,l,r) + LFE ch, ~768.00 kbps avg|Дубляж, R5|
Аудио 2: Russian: 48 kHz, DTS, 3/2 (L,C,R,l,r) + LFE ch, ~1536.00 kbps avg |Одноголосый закадровый, Ю.Сербин|
Аудио 3: Russian: 48 kHz, DTS, 3/2 (L,C,R,l,r) + LFE ch, ~1536.00 kbps avg (Кубик в кубе)
Аудио 4: Russian: 48 kHz, DTS, 3/2 (L,C,R,l,r) + LFE ch, ~1536.00 kbps avg(OzzTV)
Аудио 5: English: 48 kHz, DTS, 3/2 (L,C,R,l,r) + LFE ch, ~1536.00 kbps avg (Оригинал)
Аудио 6: English: 48 kHz, AAC, 2/0 (L,R) ch, ~96.00 kbps avg |Commentary|

MediaInfo

General
Unique ID : 231777826609948578306668238777903404706 (0xAE5EC921C142B3EC9B6C3A981CDAD6A2)
Complete name : D:\Downloads\Видео\Скриншоты\127.Hours.2010.BluRay.720p.DTS.x264.mkv
Format : Matroska
File size : 8.41 GiB
Duration : 1h 33mn
Overall bit rate : 12.8 Mbps
Movie name : -Talian-
Encoded date : UTC 2011-04-09 12:29:49
Writing application : mkvmerge v3.3.0 ('Language') сборка от May 14 2010 17:11:50
Writing library : libebml v0.8.0 + libmatroska v0.9.0
Video
ID : 1
Format : AVC
Format/Info : Advanced Video Codec
Format profile : High@L4.1
Format settings, CABAC : Yes
Format settings, ReFrames : 8 frames
Codec ID : V_MPEG4/ISO/AVC
Duration : 1h 33mn
Nominal bit rate : 5 997 Kbps
Width : 1 280 pixels
Height : 694 pixels
Display aspect ratio : 16:9
Frame rate : 23.976 fps
Color space : YUV
Chroma subsampling : 4:2:0
Bit depth : 8 bits
Scan type : Progressive
Bits/(Pixel*Frame) : 0.282
Title : 127.Hours.2010.BluRay.720p.DTS.x264
Writing library : x264 core 114 r1913 5fd3dce
Encoding settings : cabac=1 / ref=8 / deblock=1:-3:-3 / analyse=0x3:0x113 / me=tesa / subme=10 / psy=1 / psy_rd=1.00:0.00 / mixed_ref=1 / me_range=16 / chroma_me=1 / trellis=2 / 8x8dct=1 / cqm=0 / deadzone=21,11 / fast_pskip=0 / chroma_qp_offset=-2 / threads=6 / sliced_threads=0 / nr=0 / decimate=0 / interlaced=0 / constrained_intra=0 / bframes=8 / b_pyramid=2 / b_adapt=2 / b_bias=0 / direct=3 / weightb=1 / open_gop=0 / weightp=2 / keyint=250 / keyint_min=23 / scenecut=40 / intra_refresh=0 / rc=2pass / mbtree=0 / bitrate=5997 / ratetol=1.0 / qcomp=0.60 / qpmin=0 / qpmax=69 / qpstep=4 / cplxblur=20.0 / qblur=0.5 / ip_ratio=1.40 / pb_ratio=1.30 / aq=1:0.80
Language : English
Audio #1
ID : 2
Format : DTS
Format/Info : Digital Theater Systems
Codec ID : A_DTS
Duration : 1h 33mn
Bit rate mode : Constant
Bit rate : 755 Kbps
Channel(s) : 6 channels
Channel positions : Front: L C R, Side: L R, LFE
Sampling rate : 48.0 KHz
Bit depth : 24 bits
Compression mode : Lossy
Stream size : 506 MiB (6%)
Title : DTS 5.1ch 755 kbps - Дубляж, R5
Language : Russian
Audio #2
ID : 3
Format : DTS
Format/Info : Digital Theater Systems
Codec ID : A_DTS
Duration : 1h 33mn
Bit rate mode : Constant
Bit rate : 1 510 Kbps
Channel(s) : 6 channels
Channel positions : Front: L C R, Side: L R, LFE
Sampling rate : 48.0 KHz
Bit depth : 24 bits
Compression mode : Lossy
Stream size : 1 013 MiB (12%)
Title : DTS 5.1ch 1510 kbps - Одноголосый закадровый, Ю.Сербин
Language : Russian
Audio #3
ID : 4
Format : DTS
Format/Info : Digital Theater Systems
Codec ID : A_DTS
Duration : 1h 33mn
Bit rate mode : Constant
Bit rate : 1 510 Kbps
Channel(s) : 6 channels
Channel positions : Front: L C R, Side: L R, LFE
Sampling rate : 48.0 KHz
Bit depth : 24 bits
Compression mode : Lossy
Stream size : 1 013 MiB (12%)
Title : DTS 5.1ch 1510 kbps -Кубик в кубе
Language : Russian
Audio #4
ID : 5
Format : DTS
Format/Info : Digital Theater Systems
Codec ID : A_DTS
Duration : 1h 33mn
Bit rate mode : Constant
Bit rate : 1 510 Kbps
Channel(s) : 6 channels
Channel positions : Front: L C R, Side: L R, LFE
Sampling rate : 48.0 KHz
Bit depth : 24 bits
Compression mode : Lossy
Stream size : 1 013 MiB (12%)
Title : DTS 5.1ch 1510 kbps -OzzTV
Language : Russian
Audio #5
ID : 6
Format : DTS
Format/Info : Digital Theater Systems
Codec ID : A_DTS
Duration : 1h 33mn
Bit rate mode : Constant
Bit rate : 1 510 Kbps
Channel(s) : 6 channels
Channel positions : Front: L C R, Side: L R, LFE
Sampling rate : 48.0 KHz
Bit depth : 24 bits
Compression mode : Lossy
Stream size : 1 013 MiB (12%)
Title : DTS 5.1ch 1510 kbps-Оригинал
Language : English
Audio #6
ID : 7
Format : AAC
Format/Info : Advanced Audio Codec
Format profile : HE-AAC / LC
Codec ID : A_AAC
Duration : 1h 33mn
Channel(s) : 2 channels
Channel positions : Front: L R
Sampling rate : 48.0 KHz / 24.0 KHz
Compression mode : Lossy
Title : AAC 2.0ch - Commentary
Language : English
Text #1
ID : 8
Format : UTF-8
Codec ID : S_TEXT/UTF8
Codec ID/Info : UTF-8 Plain Text
Title : Sub-R5
Language : Russian
Text #2
ID : 9
Format : UTF-8
Codec ID : S_TEXT/UTF8
Codec ID/Info : UTF-8 Plain Text
Title : Sub-forced.Voronine
Language : Russian
Text #3
ID : 10
Format : UTF-8
Codec ID : S_TEXT/UTF8
Codec ID/Info : UTF-8 Plain Text
Title : Sub-full.SDH.Voronine
Language : Russian
Text #4
ID : 11
Format : UTF-8
Codec ID : S_TEXT/UTF8
Codec ID/Info : UTF-8 Plain Text
Title : Sub-full.Voronine
Language : Russian
Text #5
ID : 12
Format : UTF-8
Codec ID : S_TEXT/UTF8
Codec ID/Info : UTF-8 Plain Text
Title : Sub
Language : English
Menu
00:00:00.000 : en:00:00:00.000
00:05:08.141 : en:00:05:08.141
00:07:55.975 : en:00:07:55.975
00:10:46.729 : en:00:10:46.729
00:14:42.924 : en:00:14:42.924
00:20:43.534 : en:00:20:43.534
00:25:02.209 : en:00:25:02.209
00:29:34.898 : en:00:29:34.898
00:32:16.434 : en:00:32:16.434
00:35:46.728 : en:00:35:46.728
00:40:12.368 : en:00:40:12.368
00:45:48.704 : en:00:45:48.704
00:48:48.968 : en:00:48:48.968
00:52:01.744 : en:00:52:01.744
00:56:05.988 : en:00:56:05.988
01:00:57.320 : en:01:00:57.320
01:03:19.629 : en:01:03:19.629
01:06:43.208 : en:01:06:43.208
01:10:24.262 : en:01:10:24.262
01:12:31.222 : en:01:12:31.222
01:15:33.237 : en:01:15:33.237
01:19:51.704 : en:01:19:51.704
01:23:28.545 : en:01:23:28.545
01:28:07.908 : en:01:28:07.908
Скачать

Скачать торрент!

Как скачивать? · Что такое торрент? · Рейтинг и ограничения

Сайт не распространяет и не хранит электронные версии произведений, а лишь предоставляет доступ к создаваемому пользователями каталогу ссылок на торрент-файлы, которые содержат только списки хеш-сумм

[Профиль] [ЛС]
Показать сообщения:    
Ответить на тему

Текущее время: Сегодня 09:50

Часовой пояс: GMT + 4



Вы не можете начинать темы
Вы не можете отвечать на сообщения
Вы не можете редактировать свои сообщения
Вы не можете удалять свои сообщения
Вы не можете голосовать в опросах
Вы не можете прикреплять файлы к сообщениям
Вы не можете скачивать файлы