Третий лишний / Ted (Сет МакФарлейн / Seth MacFarlane) [2012, США, фэнтези, комедия, BDRip 1080p] Dub + Original (Eng) + Sub (Rus, Eng)

Ответить на тему
 
Автор Сообщение

user ®

Стаж: 7 лет 7 месяцев

Сообщений: 20008

Пост Пост: #1 от 30-Сен-2013 12:35

[Цитировать]

Третий лишний / Ted
Страна: США
Студия: Universal Pictures, Media Rights Capital
Жанр: фэнтези, комедия
Год выпуска: 2012
Продолжительность: 01:46:03
Перевод: Профессиональный (дублированный) [Blu-Ray EUR]
Cубтитры: русские, английские
Оригинальная аудиодорожка: английская
Режиссер: Сет МакФарлейн / Seth MacFarlane
В ролях: Марк Уолберг, Мила Кунис, Сет МакФарлейн, Джоэль МакХэйл, Джованни Рибизи, Патрик Варбертон, Мэтт Уолш, Джессика Барт, Аэдин Минкс, Билл Смитрович, Патрик Стюарт, Бреттон Мэнли, Ральф Гармен, Алекс Борштейн, Джон Винер, Лора Вандервурт, Роберт Ву, Джинджер Гонзага, Джессика Строуп, Мелисса Ордвэй, Макс Харрис, Оуэн Кларк, Кристина Доак, Шанти Сок, Сара Фишер, Пэт Ши, Пол Кэмпбелл, Крис Кокс, Генри Пензи, Виера Андреа Мойя, Шоун Торнтон, Эрик Вайнштейн, Дэнни Смит, Майк Никитас, Робин Хэмилтон, Майк Генри, Джонни Ли Девенпорт, Кристина Эверетт
Описание: Джон влюблен в красавицу Лори, у него отличная работа и большие планы на будущее. Но в их отношения вмешивается третий, давний друг Джона — Тед. Он отрывается сутки напролет, предпочитает случайные связи и не желает терять друга. Но никто на самом деле не знает на что он способен, ведь Тед — большой плюшевый медведь.

Релиз: fanatus
Качество видео: BDRip 1080p
Исходник: Blu-ray disc [EUR]
Контейнер: MKV
Видео: MPEG-4 AVC, 14400 kbps , 1920x1038, 1.85:1, 23.976 fps, 0.301 bit/pixel
Аудио 1: русский (DTS, 6 ch, 48 kHz, 768 Kbps)
Аудио 2: английский (DTS, 6 ch, 48 kHz, 1 510 Kbps)
Формат субтитров: softsub (SRT)
Главы: есть

MediaInfo

General
Unique ID : 176476271731487464155425952972840080257 (0x84C417F77D765CCC8A9361EC2FB39381)
Complete name : D:\Tretij.lishnij.2012.x264.BDRip.1080p.fanatus.mkv
Format : Matroska
Format version : Version 2
File size : 12.3 GiB
Duration : 1h 46mn
Overall bit rate : 16.6 Mbps
Movie name : Ted (2012) - fanatus
Encoded date : UTC 2013-01-16 14:08:56
Writing application : mkvmerge v3.4.0 ('Rapunzel') сборка от May 15 2010 09:38:20
Writing library : libebml v0.8.0 + libmatroska v0.9.0
Video
ID : 1
Format : AVC
Format/Info : Advanced Video Codec
Format profile : High@L4.1
Format settings, CABAC : Yes
Format settings, ReFrames : 4 frames
Codec ID : V_MPEG4/ISO/AVC
Duration : 1h 46mn
Bit rate : 14.4 Mbps
Width : 1 920 pixels
Height : 1 038 pixels
Display aspect ratio : 1.85:1
Frame rate : 23.976 fps
Color space : YUV
Chroma subsampling : 4:2:0
Bit depth : 8 bits
Scan type : Progressive
Bits/(Pixel*Frame) : 0.301
Stream size : 10.4 GiB (84%)
Title : Ted (2012)
Writing library : x264 core 129 r2245 bc13772
Encoding settings : cabac=1 / ref=4 / deblock=1:-3:-3 / analyse=0x3:0x113 / me=umh / subme=11 / psy=1 / psy_rd=1.05:0.00 / mixed_ref=1 / me_range=48 / chroma_me=1 / trellis=2 / 8x8dct=1 / cqm=0 / deadzone=21,11 / fast_pskip=0 / chroma_qp_offset=-2 / threads=16 / lookahead_threads=2 / sliced_threads=0 / nr=0 / decimate=0 / interlaced=0 / bluray_compat=0 / constrained_intra=0 / bframes=7 / b_pyramid=2 / b_adapt=2 / b_bias=0 / direct=3 / weightb=1 / open_gop=0 / weightp=2 / keyint=240 / keyint_min=23 / scenecut=40 / intra_refresh=0 / rc_lookahead=40 / rc=2pass / mbtree=0 / bitrate=14400 / ratetol=1.0 / qcomp=0.70 / qpmin=0 / qpmax=69 / qpstep=4 / cplxblur=20.0 / qblur=0.5 / vbv_maxrate=50000 / vbv_bufsize=62500 / nal_hrd=none / ip_ratio=1.40 / pb_ratio=1.30 / aq=2:0.80
Language : English
Default : Yes
Forced : No
Audio #1
ID : 2
Format : DTS
Format/Info : Digital Theater Systems
Codec ID : A_DTS
Duration : 1h 46mn
Bit rate mode : Constant
Bit rate : 755 Kbps
Channel(s) : 6 channels
Channel positions : Front: L C R, Side: L R, LFE
Sampling rate : 48.0 KHz
Bit depth : 24 bits
Compression mode : Lossy
Stream size : 572 MiB (5%)
Title : Dub
Language : Russian
Default : Yes
Forced : Yes
Audio #2
ID : 3
Format : DTS
Format/Info : Digital Theater Systems
Codec ID : A_DTS
Duration : 1h 46mn
Bit rate mode : Constant
Bit rate : 1 510 Kbps
Channel(s) : 6 channels
Channel positions : Front: L C R, Side: L R, LFE
Sampling rate : 48.0 KHz
Bit depth : 24 bits
Compression mode : Lossy
Stream size : 1.12 GiB (9%)
Title : Original
Language : English
Default : No
Forced : No
Text #1
ID : 4
Format : UTF-8
Codec ID : S_TEXT/UTF8
Codec ID/Info : UTF-8 Plain Text
Title : Forced
Language : Russian
Default : Yes
Forced : Yes
Text #2
ID : 5
Format : UTF-8
Codec ID : S_TEXT/UTF8
Codec ID/Info : UTF-8 Plain Text
Title : Full
Language : Russian
Default : No
Forced : No
Text #3
ID : 6
Format : UTF-8
Codec ID : S_TEXT/UTF8
Codec ID/Info : UTF-8 Plain Text
Title : Full
Language : English
Default : No
Forced : No
Menu
00:00:00.000 : en:Chapter 01
00:04:05.912 : en:Chapter 02
00:10:11.819 : en:Chapter 03
00:15:25.132 : en:Chapter 04
00:19:31.545 : en:Chapter 05
00:25:47.879 : en:Chapter 06
00:30:48.972 : en:Chapter 07
00:34:31.194 : en:Chapter 08
00:41:05.045 : en:Chapter 09
00:47:41.692 : en:Chapter 10
00:52:33.942 : en:Chapter 11
00:58:44.395 : en:Chapter 12
01:03:42.360 : en:Chapter 13
01:08:20.638 : en:Chapter 14
01:13:04.421 : en:Chapter 15
01:17:35.025 : en:Chapter 16
01:24:12.630 : en:Chapter 17
01:31:35.490 : en:Chapter 18
01:35:17.670 : en:Chapter 19
01:40:34.737 : en:Chapter 20

x264 [info]

---[NoImage] raw [info]: 1920x1038p 1:1 @ 24000/1001 fps (cfr)
---[NoImage] x264 [info]: using SAR=1/1
---[NoImage] x264 [info]: using cpu capabilities: MMX2 SSE2Fast FastShuffle SSEMisalign LZCNT
---[NoImage] x264 [info]: profile High, level 4.1
---[NoImage]
---[NoImage] x264 [info]: frame I:1438 Avg QP:15.12 size:314975
---[NoImage] x264 [info]: frame P:31303 Avg QP:17.26 size:126035
---[NoImage] x264 [info]: frame B:119827 Avg QP:19.11 size: 58544
---[NoImage] x264 [info]: consecutive B-frames: 2.3% 1.9% 6.8% 8.8% 15.5% 60.5% 3.8% 0.5%
---[NoImage] x264 [info]: mb I I16..4: 1.6% 93.5% 5.0%
---[NoImage] x264 [info]: mb P I16..4: 0.7% 17.9% 0.5% P16..4: 26.9% 36.5% 12.9% 0.0% 0.0% skip: 4.6%
---[NoImage] x264 [info]: mb B I16..4: 0.1% 3.2% 0.1% B16..8: 39.6% 20.9% 3.7% direct: 7.9% skip:24.6% L0:43.4% L1:44.9% BI:11.6%
---[NoImage] x264 [info]: 8x8 transform intra:94.1% inter:65.2%
---[NoImage] x264 [info]: direct mvs spatial:99.1% temporal:0.9%
---[NoImage] x264 [info]: coded y,uvDC,uvAC intra: 95.2% 89.1% 71.7% inter: 45.1% 38.6% 12.1%
---[NoImage] x264 [info]: i16 v,h,dc,p: 40% 13% 5% 43%
---[NoImage] x264 [info]: i8 v,h,dc,ddl,ddr,vr,hd,vl,hu: 8% 7% 10% 11% 14% 13% 13% 12% 13%
---[NoImage] x264 [info]: i4 v,h,dc,ddl,ddr,vr,hd,vl,hu: 9% 8% 10% 9% 15% 13% 13% 10% 12%
---[NoImage] x264 [info]: i8c dc,h,v,p: 46% 22% 16% 15%
---[NoImage] x264 [info]: Weighted P-Frames: Y:1.4% UV:0.7%
---[NoImage] x264 [info]: ref P L0: 49.5% 9.6% 27.7% 12.1% 1.1% 0.0%
---[NoImage] x264 [info]: ref B L0: 82.5% 14.1% 3.4%
---[NoImage] x264 [info]: ref B L1: 90.3% 9.7%
---[NoImage] x264 [info]: kb/s:14348.87
---[NoImage] encoded 152568 frames, 4.31 fps, 14348.87 kb/s

Скриншот c названием фильма

Скриншоты

Скачать

Скачать торрент!

Как скачивать? · Что такое торрент? · Рейтинг и ограничения

Сайт не распространяет и не хранит электронные версии произведений, а лишь предоставляет доступ к создаваемому пользователями каталогу ссылок на торрент-файлы, которые содержат только списки хеш-сумм

[Профиль] [ЛС]
Показать сообщения:    
Ответить на тему

Текущее время: Сегодня 18:09

Часовой пояс: GMT + 4



Вы не можете начинать темы
Вы не можете отвечать на сообщения
Вы не можете редактировать свои сообщения
Вы не можете удалять свои сообщения
Вы не можете голосовать в опросах
Вы не можете прикреплять файлы к сообщениям
Вы не можете скачивать файлы