Честь и слава / Ангел кикбоксера / Honor and Glory / Honour and Glory / Angel Of Kickboxer / Power Heat / Jung wang tin ha / Zong heng tian xia (Годфри Хо / Godfrey Ho) [1992, Гонконг, США, боевик, криминал, DVDRip] MVO (5 канал, Петербург)

Ответить на тему
 
Автор Сообщение

user ®

Стаж: 11 лет

Сообщений: 15151

Пост Пост: #1 от 29-Сен-2013 22:40

[Цитировать]

Честь и слава / Ангел кикбоксера
Honor and Glory / Honour and Glory / Angel Of Kickboxer / Power Heat / Jung wang tin ha / Zong heng tian xia
Страна: Гонконг, США
Жанр: боевик, криминал
Год выпуска: 1992
Продолжительность: 01:26:38
Перевод: Профессиональный (многоголосый закадровый) 5 канал, Петербург
Cубтитры: нет
Режиссер: Годфри Хо / Godfrey Ho
В ролях: Синтия Ротрок, Робин Шоу, Чак Джеффрис, Юкари Ошима, Мун Ли, Донна Джейсон, Джон Миллер, Джералд Клейн, Ричард Юэнь, Йип Йим Хин, Лео Рокка, Грег Элги, Джимми Алуизи, Майкл Бэрри, Джейсон Биверс, Курт Бекер, Стив Белчер, Рэй Баннер, Стивен Канн, Том Карлин, Шерри Картер, Дженаро Сентено, Дэйв Чамберлен, Полин Чан, Тао Чианг, Даг Коэн, Эверетт Коттом, Малик Дозье, Майкл Н. Данлоп, Ричард Эванс, Лесли Фостер, Мелисса Гарднер...
Описание: Свершилось ужасное, Советский Союз прекратил своё существование. Огромные запасы вооружения остались без присмотра. В этой неразберихе болгарский генерал выкрал детонатор от ядерной боеголовки и подался на запад. По его следам отправляют спецагента ФБР Трейси Прайд (Синтия Ротрок). Меж тем, в Штатах, её младшая сестра тележурналистика Джойс Прайд (Донна Джейсон) задалась целью вывести на чисту воду мультимиллионера Джейсона Слейда (Джон Миллер), который заказал похищение ядерной установки. Сестрам придется объединить усилия и спасти планету от третьей мировой войны.
Сэмпл: http://multi-up.com/908032
Качество видео: DVDRip
Формат видео: AVI
Видео: 640x480 (1.33:1), 25 fps, XviD build 64 ~998 kbps avg, 0.13 bit/pixel
Аудио: 48 kHz, MPEG Layer 3, 2 ch, ~128.00 kbps avg

MediaInfo

Общее
Полное имя : C:\Users\к\Desktop\фильмы\Честь и слава.1992.avi
Формат : AVI
Формат/Информация : Audio Video Interleave
Размер файла : 704 Мбайт
Продолжительность : 1 ч. 26 м.
Общий поток : 1136 Кбит/сек
Видео
Идентификатор : 0
Формат : MPEG-4 Visual
Профиль формата : Advanced Simple@L5
Параметр BVOP формата : 2
Параметр QPel формата : Нет
Параметр GMC формата : Без точки перехода
Параметр матрицы формата : Default (H.263)
Идентификатор кодека : XVID
Идентификатор кодека/Подсказка : XviD
Продолжительность : 1 ч. 26 м.
Битрейт : 998 Кбит/сек
Ширина : 640 пикселей
Высота : 480 пикселей
Соотношение сторон : 4:3
Частота кадров : 25,000 кадров/сек
Цветовое пространство : YUV
Субдискретизация насыщенности : 4:2:0
Битовая глубина : 8 бит
Тип развёртки : Прогрессивная
Метод сжатия : С потерями
Бит/(Пиксели*Кадры) : 0.130
Размер потока : 619 Мбайт (88%)
Библиотека кодирования : XviD 64
Аудио
Идентификатор : 1
Формат : MPEG Audio
Версия формата : Version 1
Профиль формата : Layer 3
Режим : Joint stereo
Идентификатор кодека : 55
Идентификатор кодека/Подсказка : MP3
Продолжительность : 1 ч. 26 м.
Вид битрейта : Постоянный
Битрейт : 128 Кбит/сек
Каналы : 2 канала
Частота : 48,0 КГц
Метод сжатия : С потерями
Размер потока : 79,3 Мбайт (11%)
Выравнивание : Соединение по промежуткам
Продолжительность промежутка : 40 мс. (1,00 видеокадр)
Время предзагрузки промежутка : 504 мс.

Скриншот c названием фильма

Скриншоты

Скачать

Скачать торрент! Честь и слава / Ангел кикбоксера / Honor and Glory / Honour and Glory / Angel Of Kickboxer / Power Heat / Jung wang tin ha / Zong heng tian xia (Годфри Хо / Godfrey Ho) [1992, Гонконг, США, боевик, криминал, DVDRip] MVO (5 канал, Петербург)

Как скачивать? · Что такое торрент? · Рейтинг и ограничения

Сайт не распространяет и не хранит электронные версии произведений, а лишь предоставляет доступ к создаваемому пользователями каталогу ссылок на торрент-файлы, которые содержат только списки хеш-сумм

[Профиль] [ЛС]
Показать сообщения:    
Ответить на тему

Текущее время: Сегодня 19:06

Часовой пояс: GMT + 4



Вы не можете начинать темы
Вы не можете отвечать на сообщения
Вы не можете редактировать свои сообщения
Вы не можете удалять свои сообщения
Вы не можете голосовать в опросах
Вы не можете прикреплять файлы к сообщениям
Вы не можете скачивать файлы