За двумя зайцами (Виктор Иванов) [1961, Комедия, Рус, Укр, SATRip]

Ответить на тему
 
Автор Сообщение

user ®

Стаж: 7 лет 7 месяцев

Сообщений: 20008

Пост Пост: #1 от 29-Сен-2013 22:40

[Цитировать]

За двумя зайцами
Жанр: Комедия
Год выпуска: 1961
Продолжительность: 1:11:41
Режиссёр: Виктор Иванов
В ролях: Олег Борисов, Маргарита Криницына, Николай Яковченко, Анна Кушниренко, Нонна Копержинская, Наталья Наум, Анатолий Юрченко, Константин Ершов, Таисия Литвиненко, Ольга Викланд
Описание: Жил-был молодой бездельник по фамилии Голохвастый. Он держал в Киеве цирюльню, пребывающую в плачевном состоянии, но большую часть времени проводил в кутежах и карточных играх. Проигравшись по крупному, Голохвастый решил поправить дела женитьбой…
Доп. информация: Запись с канала Культура Россия качество изображения красочное по сравнению с DVD + добавлена украинская дорожка (Раритет)
Сэмпл: http://multi-up.com/907994
Качество видео: DVB
Формат видео: TS
Видео: 4618 Кбит/сек MPEG2 Video 720x576 (4:3) 25fps
Аудио: MPEG Audio 48000Hz stereo Layer 2 192kbps Рус
Аудио: MPEG Audio 48000Hz stereo Layer 2 192kbps Укр

MediaInfo

Общее
Идентификатор : 1 (0x1)
Полное имя : D:\За двумя зайцами [1961] (Рус-Укр).ts
Формат : MPEG-TS
Размер файла : 2,64 Гбайт
Продолжительность : 1 ч. 11 м.
Режим общего битрейта : Переменный
Общий поток : 5266 Кбит/сек
Максимальный общий битрейт : 35,5 Мбит/сек
Видео
Идентификатор : 4113 (0x1011)
Идентификатор меню : 1 (0x1)
Формат : MPEG Video
Версия формата : Version 2
Профиль формата : Main@Main
Параметр BVOP формата : Да
Параметр матрицы формата : Выборочная
Параметр GOP формата : M=3, N=36
Идентификатор кодека : 2
Продолжительность : 1 ч. 11 м.
Вид битрейта : Переменный
Битрейт : 4618 Кбит/сек
Максимальный битрейт : 15,0 Мбит/сек
Ширина : 720 пикселей
Высота : 576 пикселей
Соотношение сторон : 4:3
Частота кадров : 25,000 кадров/сек
Стандарт вещания : PAL
Цветовое пространство : YUV
Субдискретизация насыщенности : 4:2:0
Битовая глубина : 8 бит
Тип развёртки : Чересстрочная
Порядок развёртки : Верхнее поле первое
Метод сжатия : С потерями
Бит/(Пиксели*Кадры) : 0.445
Размер потока : 2,31 Гбайт (88%)
Библиотека кодирования : (c) 1998-2010 Womble Multimedia, Inc. / MPEG Video Wizard DVD 5.0.0.114 (01/2010) / Apr 20 2010
Аудио #1
Идентификатор : 4352 (0x1100)
Идентификатор меню : 1 (0x1)
Формат : MPEG Audio
Версия формата : Version 1
Профиль формата : Layer 2
Режим : Joint stereo
Расширение режима : Intensity Stereo
Идентификатор кодека : 4
Продолжительность : 1 ч. 11 м.
Вид битрейта : Постоянный
Битрейт : 192 Кбит/сек
Каналы : 2 канала
Частота : 48,0 КГц
Метод сжатия : С потерями
Задержка видео : -80 мс.
Размер потока : 98,4 Мбайт (4%)
Язык : Russian
Аудио #2
Идентификатор : 4353 (0x1101)
Идентификатор меню : 1 (0x1)
Формат : MPEG Audio
Версия формата : Version 1
Профиль формата : Layer 2
Идентификатор кодека : 4
Продолжительность : 1 ч. 11 м.
Вид битрейта : Постоянный
Битрейт : 192 Кбит/сек
Каналы : 2 канала
Частота : 48,0 КГц
Метод сжатия : С потерями
Задержка видео : -80 мс.
Размер потока : 98,4 Мбайт (4%)
Язык : Ukrainian

Скриншоты для сравнения

http://www.screenshotcomparison.com/comparison/41698/picture:0
[url=http://***/forum/viewtopic.php?t=163229]http://***/forum/viewtopic.php?t=163229[/url]

Скриншот c названием фильма

Скриншоты

Скачать

Скачать торрент!

Как скачивать? · Что такое торрент? · Рейтинг и ограничения

Сайт не распространяет и не хранит электронные версии произведений, а лишь предоставляет доступ к создаваемому пользователями каталогу ссылок на торрент-файлы, которые содержат только списки хеш-сумм

[Профиль] [ЛС]
Показать сообщения:    
Ответить на тему

Текущее время: Сегодня 20:33

Часовой пояс: GMT + 4



Вы не можете начинать темы
Вы не можете отвечать на сообщения
Вы не можете редактировать свои сообщения
Вы не можете удалять свои сообщения
Вы не можете голосовать в опросах
Вы не можете прикреплять файлы к сообщениям
Вы не можете скачивать файлы