Бодрствуйте! / Jagte Raho (Амит Митра, Сомбху Митра / Amit Mitra, Sombhu Mitra) [1956, Индия, Драма, DVDRip] [Полная версия] MVO (Zee TV)

Ответить на тему
 
Автор Сообщение

user ®

Стаж: 12 лет

Сообщений: 15125

Пост Пост: #1 от 29-Сен-2013 17:45

[Цитировать]

Бодрствуйте! / Jagte Raho / Полная версия
Страна: Индия
Жанр: Драма
Год выпуска: 1956
Продолжительность: 02:17:35
Перевод: Профессиональный (многоголосый закадровый) Zee TV
Cубтитры: нет
Режиссер: Амит Митра, Сомбху Митра / Amit Mitra, Sombhu Mitra
В ролях: Радж Капур, Саид Камал, Наргис, Прадип Кумар, Сумитра Деви, Смрити Бисвас, Пахади Саньял, Сулочана Чаттерджи, Дэйзи Ирани, Немо, Мотилал, Нана Палсикар, Ифтекха, Пран
Описание: Герой Раджа Капура, - скромный сельский житель, прибывший в большой город. И в первые сутки своего путешествия он становится свидетелем темной стороны общества, принявшего его за вора. Когда темная ночь проходит, он видит, что с наступлением рассвета в городе все снова становится красивым. Вот только наступает ночь и цикл повторяется...
Доп. информация: Релиз
Запись с Tv, cведение звука: василисса (Спасибо!)
Рип от veronika83 и Reza74 (Спасибо!)
Сэмпл: http://multi-up.com/907976
Качество видео: DVDRip
Формат видео: AVI
Видео: XviD MPEG-4, 608x448 (1.36:1), 25 fps, 1289 kbps avg
Аудио: AC3 Dolby Digital, 48 kHz, 2/0 (L,R) ch, 256.00 kbps avg

MediaInfo

General
Complete name : D:\Bodrstvuite.1956.DVDRip.XviD.BwTorrents.avi
Format : AVI
Format/Info : Audio Video Interleave
File size : 1.49 GiB
Duration : 2h 17mn
Overall bit rate : 1 555 Kbps
Writing application : VirtualDubMod 1.5.10.3 | www.virtualdub-fr.org || (build 2550/release)
Writing library : VirtualDubMod build 2550/release
Video
ID : 0
Format : MPEG-4 Visual
Format profile : AdvancedSimple@L5
Format settings, BVOP : Yes
Format settings, QPel : No
Format settings, GMC : No warppoints
Format settings, Matrix : Default (H.263)
Muxing mode : Packed bitstream
Codec ID : XVID
Codec ID/Hint : XviD
Duration : 2h 17mn
Bit rate : 1 289 Kbps
Width : 608 pixels
Height : 448 pixels
Display aspect ratio : 4/3
Frame rate : 25.000 fps
Resolution : 24 bits
Colorimetry : 4:2:0
Scan type : Progressive
Bits/(Pixel*Frame) : 0.189
Stream size : 1.24 GiB (83%)
Writing library : XviD 1.1.2 (UTC 2006-11-01)
Audio
ID : 1
Format : AC-3
Format/Info : Audio Coding 3
Codec ID : 2000
Duration : 2h 17mn
Bit rate mode : Constant
Bit rate : 256 Kbps
Channel(s) : 2 channels
Channel positions : L R
Sampling rate : 48.0 KHz
Stream size : 252 MiB (16%)
Alignment : Split accross interleaves
Interleave, duration : 40 ms (1.00 video frame)
Interleave, preload duration : 500 ms

Скриншоты

Скачать

Скачать торрент! Бодрствуйте! / Jagte Raho (Амит Митра, Сомбху Митра / Amit Mitra, Sombhu Mitra) [1956, Индия, Драма, DVDRip] [Полная версия] MVO (Zee TV)

Как скачивать? · Что такое торрент? · Рейтинг и ограничения

Сайт не распространяет и не хранит электронные версии произведений, а лишь предоставляет доступ к создаваемому пользователями каталогу ссылок на торрент-файлы, которые содержат только списки хеш-сумм

[Профиль] [ЛС]
Показать сообщения:    
Ответить на тему

Текущее время: Сегодня 00:09

Часовой пояс: GMT + 4



Вы не можете начинать темы
Вы не можете отвечать на сообщения
Вы не можете редактировать свои сообщения
Вы не можете удалять свои сообщения
Вы не можете голосовать в опросах
Вы не можете прикреплять файлы к сообщениям
Вы не можете скачивать файлы