Возвращение героя / The Last Stand (Ким Чжи Ун / Kim Ji Woon) [2013, США, боевик, триллер, криминал, BDRip] [US-Transfer] AVO (Гаврилов)

Ответить на тему
 
Автор Сообщение

user ®

Стаж: 7 лет 7 месяцев

Сообщений: 20008

Пост Пост: #1 от 29-Сен-2013 14:35

[Цитировать]

Возвращение героя / The Last Stand
«Спокойная жизнь не для него»
- Страна: США / Di Bonaventura Pictures
Жанр: боевик, триллер, криминал
Год выпуска: 2013
Продолжительность: 01:47:13
Перевод: Авторский (одноголосый закадровый)
Cубтитры: нет
Режиссер: Ким Чжи Ун / Kim Ji Woon
В ролях: Арнольд Шварценеггер, Форест Уитакер, Джонни Ноксвилл, Джейми Александр, Родриго Санторо, Луис Гузман, Эдуардо Норьега, Петер Стормаре, Зак Гилфорд, Генезис Родригез, Сонни Лэндэм, Гарри Дин Стэнтон, Джон Патрик Амедори, Дэниэл Хенни, Титос Менчаса, Ричард Диллард, Мэтью Грир, Крис Браунинг, Кристиана Люкас, Рио Александр.
Описание: Самая опасная и жестокая банда наркоторговцев сбегает из-под конвоя ФБР. Прихватив заложника, они мчатся к мексиканской границе на бронированной, оснащенной первоклассным вооружением машине. У них на пути стоит лишь тихий городок, за порядком в котором следит шериф Оуенс. Когда-то он был одним из лучших полицейских Лос-Анджелеса, теперь он вернулся.-Рейтинг
imdb.com: 6.50 (43 086)
kinopoisk.ru: 6.793 (17 776)
MPAA: R - лицам до 17 лет обязательно присутствие взрослого-Сэмпл: http://multi-up.com/875633-Качество видео: BDRip
Формат видео: AVI
Видео: XviD build 65, 720x304 (2.37:1), 23.976 fps, ~1496 kbps avg, 0.285 bit/pixel
Аудио: 48 kHz, AC3 Dolby Digital, 3/2 (L,C,R,l,r) + LFE ch, ~448 kbps avg (AVO)
-

Благодарность

За перевод А. Гаврилова благодарим пользователей hdtracker:
shitman82, KpucTo161, _MyxAmoP_, Schmulke, LAVR, kinobbk, foxlight, apollion, TvarYuri, SavineX, rydanes, Brown15, GaryH, milocerd0v, chef&chef, dunhill200, lexal, Chistobaev, karantin66, olegsoleg, therox, Role, ZeRoNe, dark1982, Pain_70, ultrajeka, Vimann, maximus1099, GEKAAKEG, Guyver, nimph, fly32, sawyer4, Wolf_Larsen, Shumway, Skoped, TOMAN, audiolubitel, Letyoha3, Hattori Hanzo, Skibichok, shtift, Denis2251, vadamk, Loki, carter64, feldeger, Rolly Tyler, hulahup, eyrobot, kondratzx, Klester, -Джосс-, DB73, Volfgang77, mamachucha66, Slimka, AndreyTula, Jiraya87, BIMMER .
Отдельное спасибо Xerman13
!

MediaInfo

General
Complete name : D\The.Last.Stand.2013.AVO.Gavrilov.US-Transfer.BDRip.1,46Gb.XviD.AC3.avi
Format : AVI
Format/Info : Audio Video Interleave
File size : 1.46 GiB
Duration : 1h 47mn
Overall bit rate : 1 953 Kbps
Writing application : VirtualDubModRus 1.5.10.2 (build 2542/release)
Writing library : VirtualDubMod build 2542/release
Video
ID : 0
Format : MPEG-4 Visual
Format profile : Advanced Simple@L5
Format settings, BVOP : 1
Format settings, QPel : No
Format settings, GMC : No warppoints
Format settings, Matrix : Custom
Codec ID : XVID
Codec ID/Hint : XviD
Duration : 1h 47mn
Bit rate : 1 496 Kbps
Width : 720 pixels
Height : 304 pixels
Display aspect ratio : 2.35:1
Frame rate : 23.976 fps
Color space : YUV
Chroma subsampling : 4:2:0
Bit depth : 8 bits
Scan type : Progressive
Compression mode : Lossy
Bits/(Pixel*Frame) : 0.285
Stream size : 1.12 GiB (77%)
Writing library : XviD 65
Audio
ID : 1
Format : AC-3
Format/Info : Audio Coding 3
Mode extension : CM (complete main)
Format settings, Endianness : Big
Codec ID : 2000
Duration : 1h 47mn
Bit rate mode : Constant
Bit rate : 448 Kbps
Channel(s) : 6 channels
Channel positions : Front: L C R, Side: L R, LFE
Sampling rate : 48.0 KHz
Bit depth : 16 bits
Compression mode : Lossy
Stream size : 344 MiB (23%)
Alignment : Split accross interleaves
Interleave, duration : 42 ms (1.00 video frame)
Interleave, preload duration : 500 ms
Title : AVO

Скриншоты

Скачать

Скачать торрент!

Как скачивать? · Что такое торрент? · Рейтинг и ограничения

Сайт не распространяет и не хранит электронные версии произведений, а лишь предоставляет доступ к создаваемому пользователями каталогу ссылок на торрент-файлы, которые содержат только списки хеш-сумм

[Профиль] [ЛС]
Показать сообщения:    
Ответить на тему

Текущее время: Сегодня 18:08

Часовой пояс: GMT + 4



Вы не можете начинать темы
Вы не можете отвечать на сообщения
Вы не можете редактировать свои сообщения
Вы не можете удалять свои сообщения
Вы не можете голосовать в опросах
Вы не можете прикреплять файлы к сообщениям
Вы не можете скачивать файлы