Пропавший медальон / The Lost Medallion: The Adventures of Billy Stone (Билл Мьюир / Bill Muir) [2013, США, приключения, HDRip] VO (RID) + Original Eng

Ответить на тему
 
Автор Сообщение

user ®

Стаж: 7 лет 7 месяцев

Сообщений: 20008

Пост Пост: #1 от 29-Сен-2013 14:35

[Цитировать]

Пропавший медальон / The Lost Medallion: The Adventures of Billy Stone
Страна: США
Жанр: приключения
Год выпуска: 2013
Продолжительность: 01:38:10
Перевод: Одноголосый закадровый RID
Cубтитры: нет
Оригинальная аудиодорожка: английский
Режиссер: Билл Мьюир / Bill Muir
В ролях: Билли Ангер, Сэмми Ханратти, Джеймс Хонг, Джэнсен Панеттьер, Уильям Коркери, Алекс Кендрик, Марк Дакаскос, Лиза ЛоЦицеро, Хэл Рубник, Сидни С. Лиуфау
Описание: Археолог Майкл Стоун искал утерянный медальон всю свою жизнь. Теперь уже его сын Билли продолжает эти поиски. Однажды Билли улыбнулась удача, и заветный медальон оказывается у него в руках. Вместе со своим лучшим другом Олли, поддавшись спонтанному желанию, они неожиданно попадают назад на 200 лет…
Сэмпл: http://multi-up.com/907926
Качество видео: HDRip
Формат видео: AVI
Видео: XviD, 720x304 , 23.976 fps, 1588 Kbps
Аудио: Russian: MP3, 48.0 KHz, 2 ch, 128 Kbps
Аудио 2: English: AC-3, 48.0 KHz, 6 ch, 384 Kbps

MediaInfo

Общее
Полное имя : D:\Poslednjy.medalion_2013.HDRip.avi
Формат : AVI
Формат/Информация : Audio Video Interleave
Размер файла : 1,45 Гбайт
Продолжительность : 1 ч. 38 м.
Общий поток : 2114 Кбит/сек
Программа кодирования : VirtualDubMod 1.5.10.2 (build 2540/release)
Библиотека кодирования : VirtualDubMod build 2540/release
Видео
Идентификатор : 0
Формат : MPEG-4 Visual
Профиль формата : Advanced Simple@L5
Параметр BVOP формата : 2
Параметр QPel формата : Нет
Параметр GMC формата : Без точки перехода
Параметр матрицы формата : Default (H.263)
Режим смешивания : Сжатый битовый поток
Идентификатор кодека : XVID
Идентификатор кодека/Подсказка : XviD
Продолжительность : 1 ч. 38 м.
Битрейт : 1588 Кбит/сек
Ширина : 720 пикселей
Высота : 304 пикселя
Соотношение сторон : 2,35:1
Частота кадров : 23,976 кадра/сек
Цветовое пространство : YUV
Субдискретизация насыщенности : 4:2:0
Битовая глубина : 8 бит
Тип развёртки : Прогрессивная
Метод сжатия : С потерями
Бит/(Пиксели*Кадры) : 0.303
Размер потока : 1,09 Гбайт (75%)
Библиотека кодирования : XviD 64
Аудио #1
Идентификатор : 1
Формат : MPEG Audio
Версия формата : Version 1
Профиль формата : Layer 3
Режим : Joint stereo
Расширение режима : MS Stereo
Идентификатор кодека : 55
Идентификатор кодека/Подсказка : MP3
Продолжительность : 1 ч. 38 м.
Вид битрейта : Постоянный
Битрейт : 128 Кбит/сек
Каналы : 2 канала
Частота : 48,0 КГц
Метод сжатия : С потерями
Размер потока : 89,9 Мбайт (6%)
Выравнивание : Соединение по промежуткам
Продолжительность промежутка : 42 мс. (1,00 видеокадр)
Время предзагрузки промежутка : 504 мс.
Аудио #2
Идентификатор : 2
Формат : AC-3
Формат/Информация : Audio Coding 3
Расширение режима : CM (complete main)
Параметр Endianness формата : Big
Идентификатор кодека : 2000
Продолжительность : 1 ч. 38 м.
Вид битрейта : Постоянный
Битрейт : 384 Кбит/сек
Каналы : 6 каналов
Расположение каналов : Front: L C R, Side: L R, LFE
Частота : 48,0 КГц
Битовая глубина : 16 бит
Метод сжатия : С потерями
Размер потока : 270 Мбайт (18%)
Выравнивание : Разделение по промежуткам
Продолжительность промежутка : 42 мс. (1,00 видеокадр)
Время предзагрузки промежутка : 500 мс.

Скриншот c названием фильма

Скриншоты

Скачать

Скачать торрент!

Как скачивать? · Что такое торрент? · Рейтинг и ограничения

Сайт не распространяет и не хранит электронные версии произведений, а лишь предоставляет доступ к создаваемому пользователями каталогу ссылок на торрент-файлы, которые содержат только списки хеш-сумм

[Профиль] [ЛС]
Показать сообщения:    
Ответить на тему

Текущее время: Сегодня 14:33

Часовой пояс: GMT + 4



Вы не можете начинать темы
Вы не можете отвечать на сообщения
Вы не можете редактировать свои сообщения
Вы не можете удалять свои сообщения
Вы не можете голосовать в опросах
Вы не можете прикреплять файлы к сообщениям
Вы не можете скачивать файлы