Отдел любви / The Love Section (Ронни Уорнер / Ronnie Warner) [2013, США, драма, мелодрама, комедия, WEB-DL 720p] AVO + Original (Eng) + Sub (eng)

Ответить на тему
 
Автор Сообщение

user ®

Стаж: 7 лет 7 месяцев

Сообщений: 20008

Пост Пост: #1 от 29-Сен-2013 08:15

[Цитировать]

Отдел любви
The Love Section
«Life is good, when you're in The Love Section.» Страна: США
Год выпуска: 2013
Жанр: драма, мелодрама, комедия
Продолжительность: 01:40:32
Перевод: Авторский (Одноголосый закадровый) [А.Дольский]
русские субтитры: нет-Режиссёр: Ронни Уорнер : Ronnie Warner
В главных ролях: Мехи Файфер, Брайан Хукс, Даветта Шервуд ,Келлита Смит, Омар Бенсон Миллер, Танги Миллер, Тейяна Тейлор-Описание: Однажды Али, преуспевающий агент по продаже недвижимости, встречает Сандрину - мать-одиночку - и сразу же влюбляется в нее. И она сразу же отвечает ему взаимностью Казалось бы они нашли свое счастье, но вот Али подворачивается сделка, которая может навсегда изменить его жизнь, и тут выясняется, что его новые отношения несовместимы с карьерным ростом. Смогут ли влюбленные вместе преодолеть все препятствия? Или же всё, что останется от их романа - лишь разбитые сердца?- -Качество: WEB-DL 720p
Формат: MKV
Видео кодек: AVC
Аудио кодек: АС3
Видео: 1280x718, 23.976 fps, ~3 855 kbps avg, 0.175 bit/pixel
Аудио #1: [RUS] 48 kHz, AC3 Dolby Digital, 3/2 (L,C,R,l,r) + LFE ch, ~384 kbps
Аудио #2: [ENG] 48 kHz, AC3 Dolby Digital, 3/2 (L,C,R,l,r) + LFE ch, ~384 kbps
субтитры: английские
навигация по главам: 8 глав

скриншоты

MediaInfo

Общее
Уникальный идентификатор : 173202602672616169645146250053526089155 (0x824D9B9EE5314FBD89E92825B761EDC3)
Полное имя : D:\Im\Отдел любви\The Love Section.2013.WEB-DL 720p.mkv
Формат : Matroska
Версия формата : Version 4 / Version 2
Размер файла : 3,31 Гбайт
Продолжительность : 1 ч. 40 м.
Общий поток : 4717 Кбит/сек
Дата кодирования : UTC 2013-09-27 15:53:05
Программа кодирования : mkvmerge v6.4.1 ('Omega Point') built on Sep 16 2013 22:05:10
Библиотека кодирования : libebml v1.3.0 + libmatroska v1.4.1
Видео
Идентификатор : 1
Формат : AVC
Формат/Информация : Advanced Video Codec
Профиль формата : High@L3.1
Параметр CABAC формата : Нет
Параметр ReFrames формата : 2 кадра
Идентификатор кодека : V_MPEG4/ISO/AVC
Продолжительность : 1 ч. 40 м.
Битрейт : 3855 Кбит/сек
Ширина : 1280 пикселей
Высота : 718 пикселей
Соотношение сторон : 16:9
Частота кадров : 23,976 кадра/сек
Цветовое пространство : YUV
Субдискретизация насыщенности : 4:2:0
Битовая глубина : 8 бит
Тип развёртки : Прогрессивная
Бит/(Пиксели*Кадры) : 0.175
Размер потока : 2,71 Гбайт (82%)
Язык : English
Default : Да
Forced : Нет
Основные цвета : BT.709-5, BT.1361, IEC 61966-2-4, SMPTE RP177
Характеристики трансфера : BT.709-5, BT.1361
Коэффициенты матрицы : BT.709-5, BT.1361, IEC 61966-2-4 709, SMPTE RP177
Аудио #1
Идентификатор : 2
Формат : AC-3
Формат/Информация : Audio Coding 3
Расширение режима : CM (complete main)
Идентификатор кодека : A_AC3
Продолжительность : 1 ч. 40 м.
Вид битрейта : Постоянный
Битрейт : 384 Кбит/сек
Каналы : 6 каналов
Расположение каналов : Front: L C R, Side: L R, LFE
Частота : 48,0 КГц
Битовая глубина : 16 бит
Метод сжатия : С потерями
Размер потока : 276 Мбайт (8%)
Заголовок : VO [А.Дольский]
Язык : Russian
Default : Да
Forced : Нет
Аудио #2
Идентификатор : 3
Формат : AC-3
Формат/Информация : Audio Coding 3
Расширение режима : CM (complete main)
Идентификатор кодека : A_AC3
Продолжительность : 1 ч. 40 м.
Вид битрейта : Постоянный
Битрейт : 384 Кбит/сек
Каналы : 6 каналов
Расположение каналов : Front: L C R, Side: L R, LFE
Частота : 48,0 КГц
Битовая глубина : 16 бит
Метод сжатия : С потерями
Размер потока : 276 Мбайт (8%)
Заголовок : ENG
Язык : English
Default : Нет
Forced : Нет
Текст
Идентификатор : 4
Формат : UTF-8
Идентификатор кодека : S_TEXT/UTF8
Идентификатор кодека/Информация : UTF-8 Plain Text
Заголовок : Eng Sub
Язык : English
Default : Нет
Forced : Нет
Меню
00:00:00.000 : en:Giggles
00:16:34.000 : en:3 Day Rule
00:30:57.000 : en:Uncharted Waters
00:38:59.000 : en:I'm Not a Perv!
00:52:15.000 : en:The Pop Up
01:11:02.000 : en:Co-Signer
01:28:08.000 : en:11 Months Later
01:36:51.000 : en:Credits
Скачать

Скачать торрент!

Как скачивать? · Что такое торрент? · Рейтинг и ограничения

Сайт не распространяет и не хранит электронные версии произведений, а лишь предоставляет доступ к создаваемому пользователями каталогу ссылок на торрент-файлы, которые содержат только списки хеш-сумм

[Профиль] [ЛС]
Показать сообщения:    
Ответить на тему

Текущее время: Сегодня 10:04

Часовой пояс: GMT + 4



Вы не можете начинать темы
Вы не можете отвечать на сообщения
Вы не можете редактировать свои сообщения
Вы не можете удалять свои сообщения
Вы не можете голосовать в опросах
Вы не можете прикреплять файлы к сообщениям
Вы не можете скачивать файлы